вход на сайт

Имя пользователя :
Пароль :

Восстановление пароля Регистрация
Воскресный папа (Наум Бирман, драма, семейный, 1985) [DVDRip, Не требуется]
Рейтинг:
(голосов: 1)



[img]{THEME}/images/logopost.png[/img]



Воскресный папа

Год выпуска: 1985
Страна: СССР
Производство: Ленфильм
Жанр: драма, семейный

Режиссёр: Наум Бирман
В ролях: Дмитрий Гранкин, Юрий Дуванов, Тамара Акулова, Галина Польских, Борис Щербаков, Виктор Шульгин, Нина Ургант, Вера Глаголева, Анна Нахапетова, Михаил Кокшенов

Перевод: Не требуется
Субтитры: Отсутствуют

Описание:
Мама и папа маленького мальчика любят друг друга, но из-за жизненных семейных мелочей и не без «помощи» тещи разошлись. И теперь мама и бабушка разрешают отцу видеться с сыном только по воскресеньям. На какие только хитрости не идет мальчишка, чтобы соединить родителей…


Дополнительно:
MediaInfo ▼Text
Общее
Полное имя :L:Воскресный папаVoskresnyy Papa.1985.avi
Формат :AVI
Размер :1.37 GiB
Продолжительность :01:20:15.240
Общий поток :2 438 Kbps
Программа кодирования :VirtualDubMod 1.5.10.2 (build 2542/release)
Библиотека кодирования :VirtualDubMod build 2542/release

Видео
Идентификатор :0
Формат :MPEG-4 Visual
Параметр BVOP формата :3
Параметр Qpel формата :No
Параметр GMC формата :0
Параметр Matrix формата :Default (H.263)
Идентификатор кодека :DX50
Продолжительность :1h 20mn 15s 240ms
Битрейт :2 173 Kbps
Ширина :688 pixels
Высота :512 pixels
Соотношение сторон :1.344
Частота кадров :25.000 fps
Глубина цвета :8 bits
Подвыборка цветности :4:2:0
Цветовое пространство :YUV
Тип развертки :Progressive
Бит/(Пиксели*Кадры) :0.247
Размер потока :1.22 GiB (89%)
Библиотека кодирования :DivX503b2559p

Аудио #1
Идентификатор :1
Формат :AC-3
Формат/Информация :Audio Coding 3
Идентификатор кодека :2000
Продолжительность :01:20:15.168
Вид битрейта :Constant
Битрейт :256 Kbps
Канал(ы) :2 channels
Расположение каналов :Front: L R
Частота :48.0 KHz
Битовая глубина :16 bits
Метод сжатия :Lossy
Размер потока :147 MiB (10%)Тех. данные:
Качество:DVDRip
Продолжительность:&nb
7180a554f893afb44b80859f37663e5019c9d49eВоскресный папа (Наум Бирман, драма, семейный, 1985) [DVDRip, Не требуется] Воскресный папа (Наум Бирман, драма, семейный, 1985) [DVDRip, Не требуется] " />

Аплоадер: Админ, дата: 14-03-2013, 21:32, торрент скачан: 359 раз

Понравилась раздача? Посмотрите эти:
  • Волшебная сила (Наум Бирман, мюзикл, комедия, семейный, 1970) [DVDRip, Не т ...
  • Энн из Зеленых крыш / Anne of Green Gables (Кевин Салливан, драма, семейный ...
  • Сережа (Георгий Данелия, Игорь Таланкин, драма, 1960) [DVDRip, Не требуется ...
  • Борец и клоун (Борис Барнет, Константин Юдин, драма, спорт, 1957) [DVDRip, ...
  • Нейтральные воды (Владимир Беренштейн, драма, 1968) [DVDRip, Не требуется]
  • Дикая собака Динго (Юлий Карасик, драма, 1962) [DVDRip, Не требуется]
  • Дама с собачкой (Иосиф Хейфиц, драма, мелодрама, 1959) [DVDRip, Не требуетс ...
  • Выйти замуж за капитана (Виталий Мельников, мелодрама, комедия, 1985) [DVDR ...
  • Выстрел (Наум Трахтенберг, драма, 1966) [DVDRip, Не требуется]
  • Четвертый (Александр Столпер, драма, 1972) [DVDRip, Не требуется]
  • Приключения Толи Клюквина (Виктор Эйсымонт, комедия, семейный, 1964) [DVDRi ...
  • Ох, уж эта Настя! (Юрий Победоносцев, семейный, 1972) [DVDRip, Не требуется ...
  • Пакет (Владимир Назаров, комедия, приключения, семейный, 1965) [DVDRip, Не ...
  • Вся королевская рать (3 части из 3) (Наум Ардашников, Александр Гуткович, д ...
  • Волшебная сила (Наум Бирман, мюзикл, комедия, семейный, 1970) [DVDRip, Не т ...
  • Опасно для жизни! (Леонид Гайдай, комедия, 1985) [DVDRip, Не требуется]
  • Мама (Элизабета Бостан, мюзикл, фэнтези, семейный, 1976) [DVDRip, Не требуе ...
  • Тропой бескорыстной любви (Агаси Бабаян, драма, 1972) [DVDRip, Не требуется ...
  • Ты и я (Лариса Шепитько, драма, 1971) [DVDRip, Не требуется]
  • Чайка (Юлий Карасик, драма, 1972) [DVDRip, Не требуется]
  • Слушать в отсеках (2 части из 2) (Николай Засеев-Руденко, приключения, 1985 ...
  • Приключения маленького папы (Дмитрий Крупко, детский, комедия, 1979) [DVDRi ...
  • Драгоценный подарок (Александр Роу, семейный, 1956) [DVDRip, Не требуется]
  • В добрый час! (Виктор Эйсымонт, драма, мелодрама, 1956) [DVDRip, Не требует ...
  • За облаками – небо (Юрий Егоров, драма, 1973) [DVDRip, Не требуется]
  • Информация
    Посетители, находящиеся в группе Гости, не могут оставлять комментарии к данной публикации.