вход на сайт

Имя пользователя :
Пароль :

Восстановление пароля Регистрация
Всадник на золотом коне (Василий Журавлев, фэнтези, 1980) [DVDRip, Не требуется]
Рейтинг:
(голосов: 1)



[img]{THEME}/images/logopost.png[/img]



Всадник на золотом коне

Год выпуска: 1980
Страна: СССР
Производство: Мосфильм
Жанр: фэнтези

Режиссёр: Василий Журавлев
В ролях: Фидан Гафаров, Ирина Малышева, Ильшат Юмагулов, Хусаин Кудашев, Петр Глебов, Нина Агапова, Тансулпан Бабичева, Павел Винник, Хамит Яруллин, Александр Курицын

Перевод: Не требуется
Субтитры: Отсутствуют

Описание:
Были у вождей двух братских народов, живущих на землях Южного Урала, сын — богатырь Алтындуга и дочь — красавица Ай. Однажды они встретились и полюбили друг друга.

А тем временем властелин царства зла Катил-Бадтша и коварная колдунья Мясекай хитростью и обманом поссорили их народы, чтобы потом ограбить и поработить. Так влюбленные были разлучены…


Дополнительно:
MediaInfo ▼Text
Общее
Полное имя :J:Всадник на золотом конеВсадник на золотом коне.avi
Формат :AVI
Размер :1.19 GiB
Продолжительность :01:07:37.400
Общий поток :2 517 Kbps
Программа кодирования :VirtualDubMod 1.5.10.2 (build 2540/release)
Библиотека кодирования :VirtualDubMod build 2540/release

Видео
Идентификатор :0
Формат :MPEG-4 Visual
Профиль формата :Advanced [email protected]
Параметр BVOP формата :3
Параметр Qpel формата :No
Параметр GMC формата :0
Параметр Matrix формата :Default (H.263)
Идентификатор кодека :XVID
Продолжительность :1h 7mn 37s 400ms
Битрейт :2 380 Kbps
Ширина :720 pixels
Высота :544 pixels
Соотношение сторон :1.324
Частота кадров :25.000 fps
Глубина цвета :8 bits
Подвыборка цветности :4:2:0
Цветовое пространство :YUV
Тип развертки :Progressive
Бит/(Пиксели*Кадры) :0.243
Размер потока :1.12 GiB (95%)
Библиотека кодирования :XviD0047

Аудио #1
Идентификатор :1
Формат :MPEG Audio
Идентификатор кодека :55
Продолжительность :01:07:09.984
Вид битрейта :Constant
Битрейт :128 Kbps
Канал(ы) :2 channels
Частота :48.0 KHz
Метод сжатия :Lossy
Размер потока :61.5 MiB (5%)Тех. данные:
Качество:DVDRip
Продолжительность:01:
8a10e61b469769e967061acdf60ab1cf4f76fd86Всадник на золотом коне (Василий Журавлев, фэнтези, 1980) [DVDRip, Не требуется] Всадник на золотом коне (Василий Журавлев, фэнтези, 1980) [DVDRip, Не требуется] " />

Аплоадер: Админ, дата: 13-03-2013, 19:37, торрент скачан: 359 раз

Понравилась раздача? Посмотрите эти:
  • Василий и Василиса (Ирина Поплавская, драма, мелодрама, биография, 1981) [D ...
  • На Золотом пруду / On Golden Pond (Марк Райделл, Драма, мелодрама, 1981) [D ...
  • Бой под Соколом (Александр Разумный, военный, 1942) [DVDRip, Не требуется]
  • "Мерседес" уходит от погони (Юрий Ляшенко, военный, 1980) [DVDRip, Не требу ...
  • Аленка (Борис Барнет, комедия, 1961) [DVDRip, Не требуется]
  • Зимородок (Вячеслав Никифоров, военный, 1972) [DVDRip, Не требуется]
  • Девушка джигит (Павел Боголюбов, комедия, 1955) [DVDRip, Не требуется]
  • Всадник без головы (Владимир Вайншток, мелодрама, приключения, вестерн, 197 ...
  • Высота (Александр Зархи, мелодрама, 1957) [DVDRip, Не требуется]
  • Гражданин Лёшка (Виктор Крючков, комедия, 1980) [DVDRip, Не требуется]
  • Иван да Марья (Борис Рыцарев, фэнтези, мелодрама, комедия, семейный, музыка ...
  • Неподсуден (Владимир Краснопольский, Валерий Усков, драма, 1969) [DVDRip, Н ...
  • Лес (Владимир Мотыль, драма, 1980) [DVDRip, Не требуется]
  • Комиссар (Александр Аскольдов, драма, военный, 1967) [DVDRip, Не требуется] ...
  • Капитанская дочка (Владимир Каплуновский, драма, 1958) [DVDRip, Не требуетс ...
  • Подарок чёрного колдуна (Борис Рыцарев, фэнтези, приключения, семейный, 197 ...
  • Майская ночь, или Утопленница (Александр Роу, фэнтези, комедия, 1952) [DVDR ...
  • Прощайте, фараоны! (Давид Черкасский, Вячеслав Винник, комедия, 1974) [DVDR ...
  • Красная площадь (Василий Ордынский, драма, военный, 1971) [DVDRip, Не требу ...
  • Юность Петра (Сергей Герасимов, драма, биография, 1980) [DVDRip, Не требует ...
  • В начале славных дел (Сергей Герасимов, драма, история, 1980) [DVDRip, Не т ...
  • Сказка о царе Салтане (Александр Птушко, фэнтези, семейный, 1967) [DVDRip, ...
  • Переполох в облаках / Poplach v oblacich (Индрих Полак, семейный, 1980) [DV ...
  • Гибель «Орла» (Василий Журавлев, приключения, 1940) [DVDRip, Не требуется]
  • Адмирал Нахимов (Всеволод Пудовкин, драма, военный, биография, история, 194 ...
  • Информация
    Посетители, находящиеся в группе Гости, не могут оставлять комментарии к данной публикации.