вход на сайт

Имя пользователя :
Пароль :

Восстановление пароля Регистрация
Вся королевская рать (3 части из 3) (Наум Ардашников, Александр Гуткович, драма, 1971) [DVDRip, Не требуется]
Рейтинг:
(голосов: 1)



[img]{THEME}/images/logopost.png[/img]



Вся королевская рать (3 части из 3)

Год выпуска: 1971
Страна: СССР
Производство: Беларусьфильм
Жанр: драма

Режиссёр: Наум Ардашников, Александр Гуткович
В ролях: Георгий Жжёнов, Михаил Козаков, Татьяна Лаврова, Борис Иванов, Алла Демидова, Олег Ефремов, Александра Климова, Ростислав Плятт, Анатолий Папанов, Валентина Калинина

Перевод: Не требуется
Субтитры: Отсутствуют

Описание:
Он проиграл на выборах в губернаторы, но не смирился с поражением. Жажда власти стала его единственной страстью. Этому кумиру он готов принести любые жертвы.


Дополнительно:
MediaInfo ▼Text
"1 часть" ▼Общее
Полное имя :K:Вся королевская рать.1971vsya korolevskaya ratvsja.korolevskaja.rat.1971.1of3.avi
Формат :AVI
Размер :994 MiB
Продолжительность :01:09:53.960
Общий поток :1 988 Kbps
Программа кодирования :VirtualDubMod 1.5.10.2 (build 2540/release)
Библиотека кодирования :VirtualDubMod build 2540/release

Видео
Идентификатор :0
Формат :MPEG-4 Visual
Профиль формата :Advanced [email protected]
Параметр BVOP формата :2
Параметр Qpel формата :No
Параметр GMC формата :0
Параметр Matrix формата :Default (MPEG)
Идентификатор кодека :XVID
Продолжительность :1h 9mn 53s 960ms
Битрейт :1 850 Kbps
Ширина :640 pixels
Высота :480 pixels
Соотношение сторон :1.333
Частота кадров :25.000 fps
Глубина цвета :8 bits
Подвыборка цветности :4:2:0
Цветовое пространство :YUV
Тип развертки :Progressive
Бит/(Пиксели*Кадры) :0.241
Размер потока :925 MiB (93%)
Библиотека кодирования :XviD0046C

Аудио #1
Идентификатор :1
Формат :MPEG Audio
Идентификатор кодека :55
Продолжительность :01:09:53.952
Вид битрейта :Constant
Битрейт :128 Kbps
Канал(ы) :2 channels
Частота :48.0 KHz
Метод сжатия :Lossy
Размер потока :64.0 MiB (6%)

"2 часть" ▼Общее
Полное имя :K:Вся королевская рать.1971vsya korolevskaya ratvsja.korolevskaja.rat.1971.2of3.avi
Формат &nbs
53c9a51e78594bc819cbe578b5b0c70494b9c16cВся королевская рать (3 части из 3) (Наум Ардашников, Александр Гуткович, драма, 1971) [DVDRip, Не требуется] Вся королевская рать (3 части из 3) (Наум Ардашников, Александр Гуткович, драма, 1971) [DVDRip, Не требуется] " />

Аплоадер: Админ, дата: 13-03-2013, 19:33, торрент скачан: 359 раз

Понравилась раздача? Посмотрите эти:
  • Старый Новый год (Наум Ардашников, Олег Ефремов, комедия, 1980) [SATRip, Не ...
  • Дни хирурга Мишкина (3 части из 3) (Вадим Зобин, драма, 1967) [DVDRip, Не т ...
  • Будни и праздники Серафимы Глюкиной (2 части из 2) (Ростислав Горяев, драма ...
  • Ошибка резидента (2 части из 2) (Вениамин Дорман, детектив, 1968) [DVDRip, ...
  • Судьба резидента (2 части из 2) (Вениамин Дорман, детектив, приключения, 19 ...
  • Месье Ленуар, который... (2 части из 2) (Александр Орлов, телеспектакль, др ...
  • Люди и манекены (4 части из 4) (Виктор Храмов, Аркадий Райкин, комедия, 197 ...
  • Достояние республики (2 части из 2) (Владимир Бычков, Студия Горького, 1971 ...
  • Даурия (2 части из 2) (Виктор Трегубович, боевик, драма, мелодрама, приключ ...
  • Выстрел (Наум Трахтенберг, драма, 1966) [DVDRip, Не требуется]
  • Покровские ворота (2 части из 2) (Михаил Козаков, мюзикл, драма, мелодрама, ...
  • Поднятая целина (3 части из 3) (Александр Иванов, драма, 1959) [DVDRip, Не ...
  • Воскресный папа (Наум Бирман, драма, семейный, 1985) [DVDRip, Не требуется] ...
  • Карнавал (2 части из 2) (Татьяна Лиознова, мюзикл, комедия, 1981) [DVDRip, ...
  • Вся королевская рать / All the Kings Men (Стивен Зэйллян, драма, триллер, 2 ...
  • Вся королевская рать / All the Kings Men (Стивен Зэйллян, триллер, драма, ...
  • Ты и я (Лариса Шепитько, драма, 1971) [DVDRip, Не требуется]
  • Степь (2 части из 2) (Сергей Бондарчук, драма, история, 1977) [DVDRip, Не т ...
  • Шельменко-денщик (Андрей Тутышкин, мюзикл, комедия, 1971) [DVDRip, Не требу ...
  • У меня есть лев (2 части из 2) (Константин Бромберг, драма, комедия, приклю ...
  • Приморский бульвар (2 части из 2) (Александр Полынников, мюзикл, комедия, 1 ...
  • Тихий Дон (3 части из 3) (Сергей Герасимов, драма, военный, 1957) [DVDRip, ...
  • Подпольный обком действует (4 части из 4) (Анатолий Буковский, военный, 197 ...
  • Гений (2 части из 2) (Виктор Сергеев, Комедия, криминал, 1991) [DVDRip, Не ...
  • Дядюшкин сон (2 части из2) (Александр Орлов, драма, комедия, 1981) [DVDRip, ...
  • Информация
    Посетители, находящиеся в группе Гости, не могут оставлять комментарии к данной публикации.