вход на сайт

Имя пользователя :
Пароль :

Восстановление пароля Регистрация
Выстрел на перевале Караш (Болотбек Шамшиев, драма, 1968) [DVDRip, Не требуется]
Рейтинг:
(голосов: 1)



[img]{THEME}/images/logopost.png[/img]



Выстрел на перевале Караш

Год выпуска: 1968
Страна: СССР
Производство: Студия Казахфильм, Киргизфильм, Студия Горького
Жанр: драма

Режиссёр: Болотбек Шамшиев
В ролях: Леонид Ясиновский, Суйменкул Чокморов, Гульжамал Батыргалиева, Советбек Джумадылов, Сабира Кумушалиева, Бакен Кыдыкеева, Муратбек Рыскулов, Джамал Сейдакматова, Виктор Уральский, Медел Маниязов

Перевод: Не требуется
Субтитры: Отсутствуют

Описание:
Киргизское селение начала XX века. Бедняк Бахтыгул честно служит своему хозяину, но он — лишь пешка в чужой игре: в результате интриг и предательства Бахтыгул попадает в тюрьму, вскоре бежит оттуда и рассправляется со своим обидчиком на перевале Караш


Дополнительно:
Знаете ли вы, что... ▼
Фильм снят по повести классика казахской литературы Мухтара Ауэзова «Событие на Кара-Караш» (в русском переводе «Выстрел на перевале»).

MediaInfo ▼Text
Общее
Полное имя :J:Выстрел на перевале КарашVistrel_na_perevale_Karash.avi
Формат :AVI
Размер :1.37 GiB
Продолжительность :01:35:40.640
Общий поток :2 047 Kbps
Библиотека кодирования :VirtualDub build 24442/release

Видео
Идентификатор :0
Формат :MPEG-4 Visual
Параметр BVOP формата :1
Параметр Qpel формата :No
Параметр GMC формата :0
Параметр Matrix формата :Default (H.263)
Идентификатор кодека :DX50
Продолжительность :1h 35mn 40s 640ms
Битрейт :1 909 Kbps
Ширина :704 pixels
Высота :256 pixels
Соотношение сторон :2.750
Частота кадров :25.000 fps
Глубина цвета :8 bits
Подвыборка цветности :4:2:0
Цветовое пространство :YUV
Тип развертки :Progressive
Бит/(Пиксели*Кадры) :0.424
Размер потока :1.28 GiB (93%)
Библиотека кодирования :DivX503b1988p

Аудио #1
Идентификатор :1
Формат :MPEG Audio
Идентификатор кодека :55
Продолжительность :01:35:40.170
Вид битрейта :Constant
Битрейт :128 Kbps
Канал(ы) :2 channels
Частота :48.0 KHz
Метод сжатия :Lossy
Размер потока :87.6 MiB (6%)



Тех. данные:
Качество:DVDRip
Продолжительность:01:35:40 час

Формат: AVI
Видео кодек: DivX
Аудио коде
0b8c4e1d56332e81fcb7173be9be2100d467578bВыстрел на перевале Караш (Болотбек Шамшиев, драма, 1968) [DVDRip, Не требуется] Выстрел на перевале Караш (Болотбек Шамшиев, драма, 1968) [DVDRip, Не требуется] " />

Аплоадер: Админ, дата: 13-03-2013, 19:16, торрент скачан: 359 раз

Понравилась раздача? Посмотрите эти:
  • Журавушка (Николай Москаленко, драма, мелодрама, 1968) [DVDRip, Не требуетс ...
  • В огне брода нет (Глеб Панфилов, драма, военный, 1968) [DVDRip, Не требуетс ...
  • Ошибка резидента (2 части из 2) (Вениамин Дорман, детектив, 1968) [DVDRip, ...
  • По Руси (Фёдор Филиппов, биография, 1968) [DVDRip, Не требуется]
  • Нейтральные воды (Владимир Беренштейн, драма, 1968) [DVDRip, Не требуется]
  • Дорога (Александр Столпер, боевик, 1955) [DVDRip, Не требуется]
  • Выстрел (Наум Трахтенберг, драма, 1966) [DVDRip, Не требуется]
  • Хозяин тайги (Владимир Назаров, криминал, 1968) [DVDRip, Не требуется]
  • Степень риска (Илья Авербах, драма, 1968) [DVDRip, Не требуется]
  • Деревенский детектив (Иван Лукинский, комедия, криминал, 1968) [DVDRip, Не ...
  • Зигзаг удачи (Эльдар Рязанов, комедия, 1968) [DVDRip, Не требуется]
  • Земля отцов (Шакен Айманов, драма, 1966) [DVDRip, Не требуется]
  • Захар Беркут (Леонид Осыка, драма, история, 1972) [DVDRip, Не требуется]
  • Капитанская дочка (Владимир Каплуновский, драма, 1958) [DVDRip, Не требуетс ...
  • Ты и я (Лариса Шепитько, драма, 1971) [DVDRip, Не требуется]
  • Сказы Уральских гор (Ольгерд Воронцов, документальный, биография, 1968) [DV ...
  • Печники (Виктор Храмов, драма, 1982) [DVDRip, Не требуется]
  • Служили два товарища (Евгений Карелов, драма, комедия, военный, 1968) [DVDR ...
  • Волчья яма (Болотбек Шамшиев, Детектив, Драма, Криминал, 1983г) [VHSRip, Ор ...
  • Снайперы (Болотбек Шамшиев, Драма, военный, 1985 г.) [VHSRip, оригинал]
  • Мальчишки с улицы Пал / A pal-utcai fiuk (Золтан Фабри, драма, 1968) [DVDRi ...
  • Убей! / Kiru (Кихачи Окамото, боевик, драма, комедия, 1968) [DVDRip, Профес ...
  • Голубые молнии (Исаак Шмарук, драма, приключения, 1978) [DVDRip, Не требует ...
  • В добрый час! (Виктор Эйсымонт, драма, мелодрама, 1956) [DVDRip, Не требует ...
  • За облаками – небо (Юрий Егоров, драма, 1973) [DVDRip, Не требуется]
  • Информация
    Посетители, находящиеся в группе Гости, не могут оставлять комментарии к данной публикации.