вход на сайт

Имя пользователя :
Пароль :

Восстановление пароля Регистрация
Где-то гремит война (3 части из 3) (Артур Войтецкий, драма, военный, 1986) [DVDRip, Не требуется]
Рейтинг:
(голосов: 1)



[img]{THEME}/images/logopost.png[/img]



Где-то гремит война (3 части из 3)

Год выпуска: 1986
Страна: СССР
Производство: Студия Довженко
Жанр: драма, военный

Режиссёр: Артур Войтецкий
В ролях: Евгений Пашин, Галина Макарова, Ольга Машная, Татьяна Шестакова, Михаил Голубович, Афанасий Кочетков, Михаил Глузский, Майя Булгакова, Евгений Весник, Виталий Базин

Перевод: Не требуется
Субтитры: Отсутствуют

Описание:
Герой фильма — семнадцатилетний Митя Ненашкин, которого война застала в далеком тылу в Сибири. Много тяжелого, трагичного пришлось ему пережить, повидать. Но в подавляющем большинстве Мите встречались добрые, мужественные люди, готовые прийти на помощь другим, поделиться последним. В этой обстановке формировался характер смышленого, храброго парня, ушедшего добровольцем на фронт.


Дополнительно:
MediaInfo ▼Text
"1 часть" ▼Общее
Полное имя :J:Где-то гремит войнаGde-to gremit voyna.1986Gde-to_gremit_voina_1986_part1.avi
Формат :AVI
Размер :835 MiB
Продолжительность :01:11:15.800
Общий поток :1 638 Kbps

Видео
Идентификатор :0
Формат :MPEG-4 Visual
Профиль формата :[email protected]
Параметр BVOP формата :Yes
Параметр Qpel формата :No
Параметр GMC формата :0
Параметр Matrix формата :Default (H.263)
Идентификатор кодека :XVID
Продолжительность :1h 11mn 15s 800ms
Битрейт :1 500 Kbps
Ширина :720 pixels
Высота :560 pixels
Соотношение сторон :1.286
Частота кадров :25.000 fps
Глубина цвета :8 bits
Цветовое пространство :YUV
Тип развертки :Progressive
Бит/(Пиксели*Кадры) :0.149
Размер потока :765 MiB (92%)

Аудио #1
Идентификатор :1
Формат :MPEG Audio
Идентификатор кодека :55
Продолжительность :01:11:15.743
Вид битрейта :Constant
Битрейт :128 Kbps
Канал(ы) :2 channels
Частота :44.1 KHz
Метод сжатия :Lossy
Размер потока :65.2 MiB (8%)

"2 часть" ▼Общее
Полное имя :J:Где-то гремит войнаGde-to gremit voyna.1986Gde-to_gremit_voina_1986_part2.avi
Формат :AVI
Размер
23fa92551df06a8d50b3e40f8f394c8c17df3712Где-то гремит война (3 части из 3) (Артур Войтецкий, драма, военный, 1986) [DVDRip, Не требуется] Где-то гремит война (3 части из 3) (Артур Войтецкий, драма, военный, 1986) [DVDRip, Не требуется] " />

Аплоадер: Админ, дата: 12-03-2013, 20:55, торрент скачан: 359 раз

Понравилась раздача? Посмотрите эти:
  • Дни хирурга Мишкина (3 части из 3) (Вадим Зобин, драма, 1967) [DVDRip, Не т ...
  • Биндюжник и король (2 части из 2) (Владимир Алеников, мюзикл, драма, комеди ...
  • Конец операции «Резидент» (2 части из 2) (Вениамин Дорман, боевик, приключе ...
  • Тростинка на ветру (2 части из 2) (Виктор Аристов, драма, 1980) [DVDRip, Не ...
  • Люди и манекены (4 части из 4) (Виктор Храмов, Аркадий Райкин, комедия, 197 ...
  • Летят журавли (Михаил Калатозов, драма, мелодрама, военный, 1957) [DVDRip, ...
  • Волны Черного моря (8 частей из 8) (Артур Войтецкий, Олег Гойда, Вячеслав К ...
  • Бой после победы (2 части из 2) (Виллен Азаров, триллер, военный, 1972) [DV ...
  • Балтийское небо (2 части из 2) (Владимир Венгеров, драма, военный, история, ...
  • Вся королевская рать (3 части из 3) (Наум Ардашников, Александр Гуткович, д ...
  • Жили-были старик со старухой (2 части из 2) (Григорий Чухрай, драма, 1964) ...
  • Судьба (2 части из 2) (Евгений Матвеев, драма, мелодрама, 1977) [DVDRip, Не ...
  • Челюскинцы (2 части из 2) (Михаил Ершов, приключения, 1984) [TVRip, Не треб ...
  • Адъютант его превосходительства (5 частей из 5) (Евгений Ташков, мелодрама, ...
  • Степь (2 части из 2) (Сергей Бондарчук, драма, история, 1977) [DVDRip, Не т ...
  • У меня есть лев (2 части из 2) (Константин Бромберг, драма, комедия, приклю ...
  • Сибириада (4 части из 4) (Андрей Кончаловский, драма, военный, история, 197 ...
  • Председатель (2 части из 2) (Алексей Салтыков, драма, 1964) [DVDRip, Не тре ...
  • Тихий Дон (3 части из 3) (Сергей Герасимов, драма, военный, 1957) [DVDRip, ...
  • Подпольный обком действует (4 части из 4) (Анатолий Буковский, военный, 197 ...
  • В лесах под Ковелем (3 части из 3) (Юрий Тупицкий, военный, история, 1984) ...
  • Дядюшкин сон (2 части из2) (Александр Орлов, драма, комедия, 1981) [DVDRip, ...
  • Моонзунд (2 части из 2) (Александр Муратов, драма, мелодрама, военный, исто ...
  • Неизвестный солдат (3 части из 3) (Григорий Аронов, Вадим Зобин, драма, 198 ...
  • Комбаты (2 части из 2) (Вячеслав Колегаев, военный, 1983) [DVDRip, Не требу ...
  • Информация
    Посетители, находящиеся в группе Гости, не могут оставлять комментарии к данной публикации.