вход на сайт

Имя пользователя :
Пароль :

Восстановление пароля Регистрация
Ссора в Лукашах (Максим Руф, мюзикл, комедия, 1959) [DVDrip, Не требуется]
Рейтинг:
(голосов: 1)



[img]{THEME}/images/logopost.png[/img]



Ссора в Лукашах

Год выпуска: 1959
Страна: СССР
Производство: Ленфильм
Жанр: мюзикл, комедия

Режиссёр: Максим Руф
В ролях: Сергей Плотников, Кирилл Лавров, Леонид Быков, Инга Будкевич, Галина Теплинская, Павел Волков, Валентина Телегина, Галина Васильева, Георгий Гумилевский, Борис Рыжухин

Перевод: Не требуется
Субтитры: Отсутствуют

Описание:
Виктор Туз любит петь, но вынужден стать автомехаником. Лиза мечтает о городской жизни, но живет в деревне. Костя Ласточкин отличный механик, но служит в армии и приезжает домой только в отпуск. За всех решает здесь председатель колхоза Трофимов, и от этого в Лукашах часто возникают ссоры.


Дополнительно:
MediaInfo ▼Text
Общее
Полное имя :J:ЗАЛИТО, НЕПРОСМОТРЕНОСсора в ЛукашахSsora v lukashah.1959.avi
Формат :AVI
Размер :1.37 GiB
Продолжительность :01:28:12.680
Общий поток :2 219 Kbps
Программа кодирования :FairUse Wizard - http://fairusewizard.com
Библиотека кодирования :The best and REALLY easy backup tool

Видео
Идентификатор :0
Формат :MPEG-4 Visual
Параметр BVOP формата :1
Параметр Qpel формата :No
Параметр GMC формата :0
Параметр Matrix формата :Default (H.263)
Идентификатор кодека :DX50
Продолжительность :1h 28mn 12s 680ms
Битрейт :1 825 Kbps
Ширина :688 pixels
Высота :512 pixels
Соотношение сторон :1.344
Частота кадров :25.000 fps
Глубина цвета :8 bits
Подвыборка цветности :4:2:0
Цветовое пространство :YUV
Тип развертки :Progressive
Бит/(Пиксели*Кадры) :0.207
Размер потока :1.12 GiB (82%)
Библиотека кодирования :DivX503b2510p

Аудио #1
Идентификатор :1
Формат :AC-3
Формат/Информация :Audio Coding 3
Идентификатор кодека :2000
Продолжительность :01:28:12.224
Вид битрейта :Constant
Битрейт :384 Kbps
Канал(ы) :2 channels
Расположение каналов :Front: L R
Частота :48.0 KHz
Битовая глубина :16 bits
Метод сжатия :Lossy
Размер потока :242 MiB (17%)



Тех. данные:
Каче
03a5ccb1925c5ad1c0449b15779ec853df2a4d0cСсора в Лукашах (Максим Руф, мюзикл, комедия, 1959) [DVDrip, Не требуется] Ссора в Лукашах (Максим Руф, мюзикл, комедия, 1959) [DVDrip, Не требуется] " />

Аплоадер: Админ, дата: 12-03-2013, 20:25, торрент скачан: 359 раз

Понравилась раздача? Посмотрите эти:
  • Дама с собачкой (Иосиф Хейфиц, драма, мелодрама, 1959) [DVDRip, Не требуетс ...
  • По главной улице с оркестром (Петр Тодоровский, мюзикл, мелодрама, комедия, ...
  • Волшебная сила (Наум Бирман, мюзикл, комедия, семейный, 1970) [DVDRip, Не т ...
  • Небесные ласточки (2 части из 2) (Леонид Квинихидзе, мюзикл, драма, комедия ...
  • Моя любовь (Владимир Корш-Саблин, мюзикл, мелодрама, комедия, 1940) [DVDRip ...
  • Мистер Икс (Юлий Хмельницкий, мюзикл, мелодрама, комедия, 1958) [DVDRip, Не ...
  • Князь Игорь (Роман Тихомиров, мюзикл, приключения, 1969) [DVDRip, Не требуе ...
  • Крепостная актриса (Роман Тихомиров, мюзикл, 1964) [DVDRip, Не требуется]
  • Сватовство гусара (Светлана Дружинина, мюзикл, мелодрама, комедия, 1979) [D ...
  • Первая перчатка (Андрей Фролов, мюзикл, мелодрама, комедия, спорт, 1946) [D ...
  • Табачный капитан (Игорь Усов, мюзикл, комедия, история, 1972) [DVDRip, Не т ...
  • Светлая личность (Александр Павловский, мюзикл, комедия, 1989) [DVDRip, Не ...
  • Шельменко-денщик (Андрей Тутышкин, мюзикл, комедия, 1971) [DVDRip, Не требу ...
  • Собака на сене (Реставрирован) (Ян Фрид, мюзикл, комедия, 1977) [DVDRip, Не ...
  • Ханума (2 части из 2) (Георгий Товстоногов, мюзикл, комедия, 1978) [DVDRip, ...
  • Солдатка (Владимир Денисенко, драма, 1959) [DVDRip, Не требуется]
  • Судьба человека (Сергей Бондарчук, драма, военный, биография, 1959) [DVDRip ...
  • Ссора в Лукашах (Леонид Быков , музыкальная комедия, 1959) [DVDRip оригинал ...
  • 01-99 (Амаси Мартиросян, короткометражка, комедия, 1959) [DVDRip, Не требуе ...
  • Максим Перепелица (Анатолий Граник, комедия, 1955) [DVDRip, Не требуется]
  • Информация
    Посетители, находящиеся в группе Гости, не могут оставлять комментарии к данной публикации.