вход на сайт

Имя пользователя :
Пароль :

Восстановление пароля Регистрация
Ау-у! (Геральд Бежанов, Юрий Горковенко, Виктор Крючков, комедия, 1975) [DVDRip, Не требуется]
Рейтинг:
(голосов: 1)



[img]{THEME}/images/logopost.png[/img]



Ау-у!

Год выпуска: 1975
Страна: СССР
Производство: Мосфильм
Жанр: комедия

Режиссёр: Геральд Бежанов, Юрий Горковенко, Виктор Крючков
В ролях: Вячеслав Невинный, Надежда Румянцева, Николай Парфёнов, Наталья Крачковская, Нодар Пиранишвили, Бухути Закариадзе, Додо Абашидзе, Владимир Басов, Леонид Куравлёв, Сергей Филиппов

Перевод: Не требуется
Субтитры: Отсутствуют

Описание:
Сатирический альманах. Фильм состоит из трех комедийных историй. В первой — писатель-деревенщик в поисках вдохновения пытается найти общий язык с теми, о ком он пишет. Во второй — дипломированный хоровик пытается научить петь грузинских крестьян. Ну, а третья переносит нас на представление, которое устраивает прямо на сцене пьяный актер и… его благодарные зрители.


Дополнительно:
MediaInfo ▼Text
Общее
Полное имя :L:Ау-уАу-у.avi
Формат :AVI
Размер :701 MiB
Продолжительность :01:06:27.600
Общий поток :1 475 Kbps
Программа кодирования :VirtualDubMod 1.5.10.1 (build 2366/release)
Библиотека кодирования :VirtualDubMod build 2366/release

Видео
Идентификатор :0
Формат :MPEG-4 Visual
Параметр BVOP формата :1
Параметр Qpel формата :No
Параметр GMC формата :0
Параметр Matrix формата :Default (H.263)
Идентификатор кодека :DX50
Продолжительность :1h 6mn 27s 600ms
Битрейт :1 370 Kbps
Ширина :576 pixels
Высота :264 pixels
Соотношение сторон :2.182
Частота кадров :25.000 fps
Глубина цвета :8 bits
Подвыборка цветности :4:2:0
Цветовое пространство :YUV
Тип развертки :Progressive
Бит/(Пиксели*Кадры) :0.360
Размер потока :651 MiB (93%)
Библиотека кодирования :DivX503b740p

Аудио #1
Идентификатор :1
Формат :MPEG Audio
Идентификатор кодека :55
Продолжительность :01:06:27.551
Вид битрейта :Constant
Битрейт :96.0 Kbps
Канал(ы) :1 channel
Частота :44.1 KHz
Метод сжатия :Lossy
Размер потока :45.6 MiB (7%)Тех. данные:
Качество:DVDRip
Продолжительность:01:06:20 час

Формат: AVI
Видео кодек: DivX
Аудио кодек: MPA1L3
Видео: 576 x 2
933f7312b5c3f3830b987a53bfc72aecd7b409e3Ау-у! (Геральд Бежанов, Юрий Горковенко, Виктор Крючков, комедия, 1975) [DVDRip, Не требуется] Ау-у! (Геральд Бежанов, Юрий Горковенко, Виктор Крючков, комедия, 1975) [DVDRip, Не требуется] " />

Аплоадер: Админ, дата: 26-03-2013, 00:42, торрент скачан: 359 раз

Понравилась раздача? Посмотрите эти:
  • Дружок (Виктор Эйсымонт, семейный, 1958) [DVDRip, Не требуется]
  • Аленка (Борис Барнет, комедия, 1961) [DVDRip, Не требуется]
  • Ко мне, Мухтар! (Семен Туманов, В. Тиунова, драма, 1964) [DVDRip, Не требуе ...
  • Каштанка (Роман Балаян, приключения, 1975) [DVDRip, Не требуется]
  • Гражданин Лёшка (Виктор Крючков, комедия, 1980) [DVDRip, Не требуется]
  • Афоня (Георгий Данелия, драма, мелодрама, комедия, 1975) [DVDRip, Не требуе ...
  • Левша (Сергей Овчаров, драма, комедия, 1986) [DVDRip, Не требуется]
  • Самая Обаятельная и Привлекательная (Геральд Бежанов) [1985 г., комедия, ме ...
  • Самая обаятельная и привлекательная (Реставрирован) (Геральд Бежанов, мелод ...
  • Печники (Виктор Храмов, драма, 1982) [DVDRip, Не требуется]
  • Карусель (Михаил Швейцер, комедия, 1970) [DVDRip, Не требуется]
  • Бабушки надвое сказали (Валерий Харченко, Юрий Клебанов, комедия, 1979) [DV ...
  • Уходя - уходи (Виктор Трегубович, комедия, 1978) [DVDRip, Не требуется]
  • В лесах под Ковелем (3 части из 3) (Юрий Тупицкий, военный, история, 1984) ...
  • Пока безумствует мечта (Юрий Горковенко, комедия, приключения, 1978) [DVDRi ...
  • Самая обаятельная и привлекательная (Геральд Бежанов, Комедия, Мелодрама, 1 ...
  • Где находится Нофелет? (Геральд Бежанов, Комедия, 1987) [DVDRip, Не требует ...
  • Где находится Нофелет? (Геральд Бежанов, Комедия, 1987) [DVDRip, Не требует ...
  • Большой «Фитиль» (Мери Анджапаридзе, Эдуард Бочаров, Софья Милькина, комеди ...
  • Гений (2 части из 2) (Виктор Сергеев, Комедия, криминал, 1991) [DVDRip, Не ...
  • Информация
    Посетители, находящиеся в группе Гости, не могут оставлять комментарии к данной публикации.