вход на сайт

Имя пользователя :
Пароль :

Восстановление пароля Регистрация
Бабье царство (Алексей Салтыков, драма, 1967) [DVDRip, Не требуется]
Рейтинг:
(голосов: 1)



[img]{THEME}/images/logopost.png[/img]



Бабье царство

Год выпуска: 1967
Страна: СССР
Производство: Мосфильм
Жанр: драма

Режиссёр: Алексей Салтыков
В ролях: Римма Маркова, Светлана Суховей, Светлана Жгун, Виталий Соломин, Алексей Крыченков, Варвара Попова, Ефим Копелян, Анатолий Кузнецов, Нина Сазонова, Александр Граве

Перевод: Не требуется
Субтитры: Отсутствуют

Описание:
Фильм о деревне, ее искренних и открытых обитателях, о любви к человеку и земле. Это история простой колхозницы, возглавившей женщин села в годы второй мировой войны и прошедшей с ними весь ужас фашистской оккупации, которая лишила ее сына, мужа и родного дома…


Дополнительно:
MediaInfo ▼Text
Общее
Полное имя :K:Бабье царствоБабье царство.avi
Формат :AVI
Размер :854 MiB
Продолжительность :01:07:07.896
Общий поток :1 779 Kbps
Программа кодирования :VirtualDubMod 1.5.10.2 (build 2540/release)
Библиотека кодирования :VirtualDubMod build 2540/release

Видео
Идентификатор :0
Формат :MPEG-4 Visual
Профиль формата :Advanced [email protected]
Параметр BVOP формата :2
Параметр Qpel формата :Yes
Параметр GMC формата :3
Параметр Matrix формата :Default (H.263)
Идентификатор кодека :XVID
Продолжительность :1h 7mn 6s 760ms
Битрейт :1 642 Kbps
Ширина :688 pixels
Высота :360 pixels
Соотношение сторон :1.911
Частота кадров :25.000 fps
Глубина цвета :8 bits
Подвыборка цветности :4:2:0
Цветовое пространство :YUV
Тип развертки :Progressive
Бит/(Пиксели*Кадры) :0.265
Размер потока :788 MiB (92%)
Библиотека кодирования :XviD0047

Аудио #1
Идентификатор :1
Формат :MPEG Audio
Идентификатор кодека :55
Продолжительность :01:07:07.896
Вид битрейта :Constant
Битрейт :128 Kbps
Канал(ы) :2 channels
Частота :48.0 KHz
Метод сжатия :Lossy
Размер потока :61.5 MiB (7%)Тех. данные:
Качество:DVDRip
Продолжительность:01:07:06 час

Формат: AVI
Видео кодек: XviD
Аудио кодек: MPA1L3
Видео: 688 x 360 (1.911), 25.000 fps, 1 642 Kbps, 0.265 bit/pi
da03d0315207f432b221b1027a90148613cb7c31Бабье царство (Алексей Салтыков, драма, 1967) [DVDRip, Не требуется] Бабье царство (Алексей Салтыков, драма, 1967) [DVDRip, Не требуется] " />

Аплоадер: Админ, дата: 26-03-2013, 00:28, торрент скачан: 359 раз

Понравилась раздача? Посмотрите эти:
  • Дни хирурга Мишкина (3 части из 3) (Вадим Зобин, драма, 1967) [DVDRip, Не т ...
  • Вас вызывает Таймыр (Алексей Коренев, комедия, 1970) [DVDRip, Не требуется] ...
  • Бой под Соколом (Александр Разумный, военный, 1942) [DVDRip, Не требуется]
  • "Мерседес" уходит от погони (Юрий Ляшенко, военный, 1980) [DVDRip, Не требу ...
  • По Руси (Фёдор Филиппов, биография, 1968) [DVDRip, Не требуется]
  • Крепкий орешек (Теодор Вульфович, комедия, военный, 1967) [DVDRip, Не требу ...
  • Дневной поезд (Инесса Селезнева, драма, 1976) [DVDRip, Не требуется]
  • Проверка на дорогах (Алексей Герман, драма, военный, 1971) [DVDRip, Не треб ...
  • Друг мой, Колька!.. (Александр Митта, Алексей Салтыков, драма, 1961) [DVDRi ...
  • Комиссар (Александр Аскольдов, драма, военный, 1967) [DVDRip, Не требуется] ...
  • Капитанская дочка (Владимир Каплуновский, драма, 1958) [DVDRip, Не требуетс ...
  • Огонь, вода и ... медные трубы // Золотые рога // Варвара-краса, длинная ко ...
  • Седьмой спутник (Григорий Аронов, Алексей Герман, драма, 1967) [DVDRip, Не ...
  • Печники (Виктор Храмов, драма, 1982) [DVDRip, Не требуется]
  • Я вас любил... (Илья Фрэз, мелодрама, комедия, 1967) [DVDRip, Не требуется] ...
  • Председатель (2 части из 2) (Алексей Салтыков, драма, 1964) [DVDRip, Не тре ...
  • При исполнении служебных обязанностей (Илья Гурин, фантастика, драма, 1963) ...
  • Сказка о царе Салтане (Александр Птушко, фэнтези, семейный, 1967) [DVDRip, ...
  • Жить, чтобы жить / Vivre Pour Vivre (Клод Лелуш, драма, 1967) [DVDRip, Проф ...
  • Кутузов (Владимир Петров, драма, 1943) [DVDRip, Не требуется]
  • Информация
    Посетители, находящиеся в группе Гости, не могут оставлять комментарии к данной публикации.