вход на сайт

Имя пользователя :
Пароль :

Восстановление пароля Регистрация
Баламут (Владимир Роговой, драма, комедия, 1978) [DVDRip, Не требуется]
Рейтинг:
(голосов: 1)



[img]{THEME}/images/logopost.png[/img]



Баламут

Год выпуска: 1978
Страна: СССР
Производство: Студия Горького
Жанр: драма, комедия

Режиссёр: Владимир Роговой
В ролях: Вадим Андреев, Наталья Казначеева, Николай Денисов, Роман Филиппов, Вадим Захарченко, Виктор Шульгин, Николай Горлов, Юрий Саранцев, Эммануил Геллер, Борис Гитин

Перевод: Не требуется
Субтитры: Отсутствуют

Описание:
Фильм о становлении молодежи, о формировании характеров, о вступлении в самостоятельную взрослую жизнь. Главный герой — Петр Горохов — никогда и ничего не делает наполовину. Ему чужды цинизм, вялость души, равнодушие. Решительный и страстный во всем, он снискал себе прозвище `Баламут`.


Дополнительно:
MediaInfo ▼Text
Общее
Полное имя :L:БаламутBalamut.1978.DVDRip.avi
Формат :AVI
Размер :702 MiB
Продолжительность :01:25:20.440
Общий поток :1 150 Kbps
Программа кодирования :Nandub v1.0rc2

Видео
Идентификатор :0
Формат :MPEG-4 Visual
Параметр BVOP формата :No
Параметр Qpel формата :No
Параметр GMC формата :0
Параметр Matrix формата :Default (H.263)
Идентификатор кодека :DX50
Продолжительность :1h 25mn 20s 440ms
Битрейт :1 009 Kbps
Ширина :512 pixels
Высота :384 pixels
Соотношение сторон :1.333
Частота кадров :25.000 fps
Глубина цвета :8 bits
Подвыборка цветности :4:2:0
Цветовое пространство :YUV
Тип развертки :Progressive
Бит/(Пиксели*Кадры) :0.205
Размер потока :616 MiB (88%)
Библиотека кодирования :DivX503b2086

Аудио #1
Идентификатор :1
Формат :MPEG Audio
Идентификатор кодека :55
Продолжительность :01:25:20.424
Вид битрейта :Constant
Битрейт :128 Kbps
Канал(ы) :2 channels
Частота :48.0 KHz
Метод сжатия :Lossy
Размер потока :78.3 MiB (11%)Тех. данные:
Качество:DVDRip
Продолжительность:01:25:20 час

Формат: AVI
Видео кодек: DivX
Аудио кодек: MPA1L3
Видео: 512 x 384 (4:3), 25.000 fps, 1 009 Kbps, 0.205 bit/pixel
Аудио : 48.0 KHz, , 2 channels (), 128 Kbps



a7a42725cee435c51cc9b564d9f1217ac9c0ab49Баламут (Владимир Роговой, драма, комедия, 1978) [DVDRip, Не требуется] Баламут (Владимир Роговой, драма, комедия, 1978) [DVDRip, Не требуется] " />

Аплоадер: Админ, дата: 24-03-2013, 22:02, торрент скачан: 359 раз

Понравилась раздача? Посмотрите эти:
  • Человек, которому везло (Константин Ершов, драма, 1978) [DVDRip, Не требует ...
  • Молодая жена (Леонид Менакер, драма, мелодрама, 1978) [DVDRip, Не требуется ...
  • Пётр Первый (Владимир Петров, драма, военный, биография, 1937) [DVDRip, Не ...
  • Сапоги (Владимир Немоляев, короткометражка, драма, комедия, 1957) [DVDRip, ...
  • Комедия ошибок (2 части из 2) (Вадим Гаузнер, комедия, 1978) [DVDRip, Не тр ...
  • Капитанская дочка (Владимир Каплуновский, драма, 1958) [DVDRip, Не требуетс ...
  • Удар головой / Coup de tete (Жан-Жак Анно, драма, комедия, спорт, 1978) [DV ...
  • Дуэнья (Михаил Григорьев, комедия, история, 1978) [DVDRip, Не требуется]
  • Суд (Аида Манасарова, Владимир Скуйбин, драма, детектив, 1963) [DVDRip, Не ...
  • Мульт-Салют. 8 часть из 30: Трое из Простоквашино/Каникулы в Простоквашино/ ...
  • Бабушки надвое сказали (Валерий Харченко, Юрий Клебанов, комедия, 1979) [DV ...
  • У матросов нет вопросов (Владимир Роговой, мюзикл, комедия, 1980) [DVDRip, ...
  • Уходя - уходи (Виктор Трегубович, комедия, 1978) [DVDRip, Не требуется]
  • Шла собака по роялю (Владимир Грамматиков, мелодрама, 1978) [DVDRip, Не тре ...
  • Сибириада (4 части из 4) (Андрей Кончаловский, драма, военный, история, 197 ...
  • Ханума (2 части из 2) (Георгий Товстоногов, мюзикл, комедия, 1978) [DVDRip, ...
  • Старомодная комедия (Эра Савельева, Татьяна Березанцева, мелодрама, 1978) [ ...
  • Подпольный обком действует (4 части из 4) (Анатолий Буковский, военный, 197 ...
  • Пока безумствует мечта (Юрий Горковенко, комедия, приключения, 1978) [DVDRi ...
  • Баламут (Владимир Роговой, комедия,1978) [DVDRip, не требуется]
  • Живите в радости (Леонид Миллионщиков, комедия, 1978) [DVDRip, Не требуется ...
  • Голубые молнии (Исаак Шмарук, драма, приключения, 1978) [DVDRip, Не требует ...
  • Максимка (Владимир Браун, приключения, 1953) [DVDRip, Не требуется]
  • Мексиканец (Владимир Каплуновский, драма, 1955) [DVDRip, Не требуется]
  • Целуются зори (Сергей Никоненко, комедия, 1978) [DVDRip, Не требуется]
  • Информация
    Посетители, находящиеся в группе Гости, не могут оставлять комментарии к данной публикации.