вход на сайт

Имя пользователя :
Пароль :

Восстановление пароля Регистрация
Балтийское небо (2 части из 2) (Владимир Венгеров, драма, военный, история, 1960) [DVDRip, Не требуется]
Рейтинг:
(голосов: 1)



[img]{THEME}/images/logopost.png[/img]



Балтийское небо (2 части из 2)

Год выпуска: 1960
Страна: СССР
Производство: Ленфильм
Жанр: драма, военный, история

Режиссёр: Владимир Венгеров
В ролях: Петр Глебов, Всеволод Платов, Михаил Ульянов, Ролан Быков, Михаил Козаков, Инна Кондратьева, Ээве Киви, Людмила Гурченко, Олег Борисов, Владислав Стржельчик

Перевод: Не требуется
Субтитры: Отсутствуют

Описание:
Одна из суровых страниц Великой Отечественной войны — героическая оборона Ленинграда. В эскадрилью истребителей прибывает новый летчик — майор Лунин.

Рассказ о суровых буднях защитников Ленинграда, полных героики и трагизма; о тяжелой доле жителей города, попавшего в кольцо вражеской блокады. В центре повествования — судьбы военных летчиков, которым выпало сражаться в небе над Ленинградом и Балтикой.


Дополнительно:
MediaInfo ▼Text
"1 часть" ▼Общее
Полное имя :K:Балтийское небоBaltiyskoe nebo1_Baltiyskoe_nebo.avi
Формат :AVI
Размер :777 MiB
Продолжительность :01:24:15.200
Общий поток :1 290 Kbps
Программа кодирования :VirtualDubModRus 1.5.10.2 (build 2542/release)
Библиотека кодирования :VirtualDubMod build 2542/release

Видео
Идентификатор :0
Формат :MPEG-4 Visual
Параметр BVOP формата :1
Параметр Qpel формата :No
Параметр GMC формата :0
Параметр Matrix формата :Default (H.263)
Идентификатор кодека :DX50
Продолжительность :1h 24mn 15s 200ms
Битрейт :1 152 Kbps
Ширина :640 pixels
Высота :480 pixels
Соотношение сторон :1.333
Частота кадров :25.000 fps
Глубина цвета :8 bits
Подвыборка цветности :4:2:0
Цветовое пространство :YUV
Тип развертки :Progressive
Бит/(Пиксели*Кадры) :0.150
Размер потока :694 MiB (89%)
Библиотека кодирования :DivX503b2676p

Аудио #1
Идентификатор :1
Формат :MPEG Audio
Идентификатор кодека :55
Продолжительность :01:24:15.192
Вид битрейта :Constant
Битрейт :128 Kbps
Канал(ы) :2 channels
Частота :48.0 KHz
Метод сжатия :Lossy
Размер потока :77.1 MiB (10%)

"2 часть" ▼Общее
Полное имя  
268380c43f656588e74fcbf5c3a4ea9696b36e09Балтийское небо (2 части из 2) (Владимир Венгеров, драма, военный, история, 1960) [DVDRip, Не требуется] Балтийское небо (2 части из 2) (Владимир Венгеров, драма, военный, история, 1960) [DVDRip, Не требуется] " />

Аплоадер: Админ, дата: 24-03-2013, 21:43, торрент скачан: 359 раз

Понравилась раздача? Посмотрите эти:
  • И ты увидишь небо (Георгий Кузнецов, драма, военный, 1978) [DVDRip, Не треб ...
  • Дни хирурга Мишкина (3 части из 3) (Вадим Зобин, драма, 1967) [DVDRip, Не т ...
  • Будни и праздники Серафимы Глюкиной (2 части из 2) (Ростислав Горяев, драма ...
  • Ошибка резидента (2 части из 2) (Вениамин Дорман, детектив, 1968) [DVDRip, ...
  • Судьба резидента (2 части из 2) (Вениамин Дорман, детектив, приключения, 19 ...
  • Месье Ленуар, который... (2 части из 2) (Александр Орлов, телеспектакль, др ...
  • Люди и манекены (4 части из 4) (Виктор Храмов, Аркадий Райкин, комедия, 197 ...
  • Путь в "Сатурн" (Виллен Азаров, военный, 1967) [DVDRip, Не требуется]
  • Бой после победы (2 части из 2) (Виллен Азаров, триллер, военный, 1972) [DV ...
  • Поднятая целина (3 части из 3) (Александр Иванов, драма, 1959) [DVDRip, Не ...
  • Живые и мертвые (2 части из 2) (Александр Столпер, драма, военный, 1963) [D ...
  • Операция «Трест» (4 части из 4) (Сергей Колосов, приключения, история, 1967 ...
  • Комиссар (Александр Аскольдов, драма, военный, 1967) [DVDRip, Не требуется] ...
  • Порожний рейс (Владимир Венгеров, драма, 1962) [DVDRip, Не требуется]
  • Степь (2 части из 2) (Сергей Бондарчук, драма, история, 1977) [DVDRip, Не т ...
  • Чучело (2 части из 2) (Ролан Быков, Аркадий Хайт, драма, 1983) [DVDRip, Не ...
  • Сибириада (4 части из 4) (Андрей Кончаловский, драма, военный, история, 197 ...
  • Почти смешная история (2 части из 2) (Петр Фоменко, мелодрама, комедия, 197 ...
  • Председатель (2 части из 2) (Алексей Салтыков, драма, 1964) [DVDRip, Не тре ...
  • Тихий Дон (3 части из 3) (Сергей Герасимов, драма, военный, 1957) [DVDRip, ...
  • Подпольный обком действует (4 части из 4) (Анатолий Буковский, военный, 197 ...
  • В лесах под Ковелем (3 части из 3) (Юрий Тупицкий, военный, история, 1984) ...
  • Потопить "Бисмарк" / Sink the Bismarck (Льюис Гилберт, боевик, драма, военн ...
  • Дядюшкин сон (2 части из2) (Александр Орлов, драма, комедия, 1981) [DVDRip, ...
  • Моонзунд (2 части из 2) (Александр Муратов, драма, мелодрама, военный, исто ...
  • Информация
    Посетители, находящиеся в группе Гости, не могут оставлять комментарии к данной публикации.