вход на сайт

Имя пользователя :
Пароль :

Восстановление пароля Регистрация
Первоклассница (Илья Фрэз, детский, 1948) [DVDRip, Не требуется]
Рейтинг:
(голосов: 1)



[img]{THEME}/images/logopost.png[/img]



Первоклассница

Год выпуска: 1948
Страна: СССР
Производство: Союздетфильм
Жанр: детский

Режиссёр: Илья Фрэз
В ролях: Наталья Защипина, Тамара Макарова, Татьяна Барышева, Кира Головко, Игорь Ерошкин, Алена Егорова, Мария Жвирблис, Мила Костыкова, Елена Таранова, Тамара Вихман

Перевод: Не требуется
Субтитры: Отсутствуют

Описание:
Маруся Орлова стала первоклассницей для нее началась интересная, полная событий и переживаний жизнь. Из самолюбивой и капризной девочки под воздействием учительницы и под влиянием своих новых подружек она превращается в дисциплинированную, общительную и отзывчивую ученицу.


Дополнительно:
MediaInfo ▼Text
Общее
Полное имя :L:ПервоклассницаPervoklassnica.avi
Формат :AVI
Размер :1.01 GiB
Продолжительность :01:07:33.560
Общий поток :2 138 Kbps
Программа кодирования :VirtualDubModRus 1.5.10.2 (build 2542/release)
Библиотека кодирования :VirtualDubMod build 2542/release

Видео
Идентификатор :0
Формат :MPEG-4 Visual
Параметр BVOP формата :1
Параметр Qpel формата :No
Параметр GMC формата :0
Параметр Matrix формата :Default (H.263)
Идентификатор кодека :DX50
Продолжительность :1h 7mn 33s 560ms
Битрейт :2 001 Kbps
Ширина :688 pixels
Высота :512 pixels
Соотношение сторон :1.344
Частота кадров :25.000 fps
Глубина цвета :8 bits
Подвыборка цветности :4:2:0
Цветовое пространство :YUV
Тип развертки :Progressive
Бит/(Пиксели*Кадры) :0.227
Размер потока :967 MiB (94%)
Библиотека кодирования :DivX503b1307p

Аудио #1
Идентификатор :1
Формат :MPEG Audio
Идентификатор кодека :55
Продолжительность :01:07:33.552
Вид битрейта :Constant
Битрейт :128 Kbps
Канал(ы) :2 channels
Частота :48.0 KHz
Метод сжатия :Lossy
Размер потока :61.9 MiB (6%)



Тех. данные:
Качество:DVDRip
Продолжительность:01:07:30 час

Формат: AVI
Видео кодек: DivX
Аудио кодек: MPA1L3
Видео: 688 x 512 (4:3), 25.000 fps, 2 001 Kbps, 0.227 bit/pixel
Аудио : 48.0 KHz, , 2 channels (), 128
8a0b24bceee6d9f39af02b4835bc81f1ffd8dda9Первоклассница (Илья Фрэз, детский, 1948) [DVDRip, Не требуется] Первоклассница (Илья Фрэз, детский, 1948) [DVDRip, Не требуется] " />

Аплоадер: Админ, дата: 6-04-2013, 19:42, торрент скачан: 359 раз

Понравилась раздача? Посмотрите эти:
  • Необыкновенное путешествие Мишки Стрекачева (Илья Фрэз, Эдуард Бочаров, сем ...
  • Дама с собачкой (Иосиф Хейфиц, драма, мелодрама, 1959) [DVDRip, Не требуетс ...
  • Вы чье, старичье? (Иосиф Хейфиц, драма, 1988) [DVDRip, Не требуется]
  • Рыжик (Илья Фрэз, приключения, семейный, 1960) [DVDRip, Не требуется]
  • Ох, уж эта Настя! (Юрий Победоносцев, семейный, 1972) [DVDRip, Не требуется ...
  • Завтрак на траве (Николай Александрович, детский, комедия, 1979) [DVDRip, Н ...
  • Объяснение в любви (2 части из 2) (Илья Авербах, мелодрама, 1977) [DVDRip, ...
  • Фантазеры (Исаак Магитон, И. Сафарова, детский, 1965) [DVDRip, Не требуется ...
  • Это мы не проходили (Илья Фрэз, драма, 1975) [DVDRip, Не требуется]
  • Повесть о настоящем человеке (Александр Столпер, драма, военный, 1948) [DVD ...
  • Сказы Уральских гор (Ольгерд Воронцов, документальный, биография, 1968) [DV ...
  • Мы с Вулканом (Валентин Перов, детский, семейный, 1973) [TVRip, Не требуетс ...
  • Чудак из пятого «Б» (Илья Фрэз, комедия, семейный, 1972) [DVDRip, Не требуе ...
  • Я вас любил... (Илья Фрэз, мелодрама, комедия, 1967) [DVDRip, Не требуется] ...
  • Старомодная комедия (Эра Савельева, Татьяна Березанцева, мелодрама, 1978) [ ...
  • Приключения маленького папы (Дмитрий Крупко, детский, комедия, 1979) [DVDRi ...
  • Приключения желтого чемоданчика (Илья Фрэз, комедия, семейный, 1970) [DVDRi ...
  • Умные вещи (2 части из 2) (Анатолий Граник, детский, семейный, 1973) [DVDRi ...
  • Дядюшкин сон (2 части из2) (Александр Орлов, драма, комедия, 1981) [DVDRip, ...
  • Карантин (Илья Фрэз, комедия, 1983) [DVDRip, Не требуется]
  • Информация
    Посетители, находящиеся в группе Гости, не могут оставлять комментарии к данной публикации.