вход на сайт

Имя пользователя :
Пароль :

Восстановление пароля Регистрация
Пакет (Владимир Назаров, комедия, приключения, семейный, 1965) [DVDRip, Не требуется]
Рейтинг:
(голосов: 1)



[img]{THEME}/images/logopost.png[/img]



Пакет

Год выпуска: 1965
Страна: СССР
Производство: Мосфильм, ТО Экран
Жанр: комедия, приключения, семейный

Режиссёр: Владимир Назаров
В ролях: Валерий Золотухин, Борис Юрченко, Анатолий Кузнецов, Борис Новиков, Павел Шпрингфельд, Геннадий Сайфулин, Гавриил Белов, Леонид Чубаров, Алексей Бахарь, Иван Косых

Перевод: Не требуется
Субтитры: Отсутствуют

Описание:
По одноименному рассказу Л. Пантелеева. О подвиге молодого красноармейца Петра Трофимова, который, выполняя задание, доставляет пакет с донесением в штаб армии Буденного.


Дополнительно:
MediaInfo ▼Text
Общее
Полное имя :L:3.РаздачаПакетPaket.avi
Формат :AVI
Размер :700 MiB
Продолжительность :01:07:43.200
Общий поток :1 445 Kbps
Программа кодирования :VirtualDubModRus 1.5.10.2 (build 2542/release)
Библиотека кодирования :VirtualDubMod build 2542/release

Видео
Идентификатор :0
Формат :MPEG-4 Visual
Параметр BVOP формата :No
Параметр Qpel формата :No
Параметр GMC формата :0
Параметр Matrix формата :Default (H.263)
Идентификатор кодека :DX50
Продолжительность :1h 7mn 43s 200ms
Битрейт :1 052 Kbps
Ширина :720 pixels
Высота :544 pixels
Соотношение сторон :1.324
Частота кадров :25.000 fps
Глубина цвета :8 bits
Подвыборка цветности :4:2:0
Цветовое пространство :YUV
Тип развертки :Progressive
Бит/(Пиксели*Кадры) :0.107
Размер потока :509 MiB (73%)
Библиотека кодирования :DivX503b1328

Аудио #1
Идентификатор :1
Формат :AC-3
Формат/Информация :Audio Coding 3
Идентификатор кодека :2000
Продолжительность :01:07:43.008
Вид битрейта :Constant
Битрейт :384 Kbps
Канал(ы) :2 channels
Расположение каналов :Front: L R
Частота :48.0 KHz
Битовая глубина :16 bits
Метод сжатия :Lossy
Размер потока :186 MiB (27%)



Тех. данные:
Качество:DVDRip
Продолжительность:01:07:40 час

Формат: AVI
Видео кодек: DivX
Аудио код
d3c32398353a7f1883a326a244550b4d819a2427Пакет (Владимир Назаров, комедия, приключения, семейный, 1965) [DVDRip, Не требуется] Пакет (Владимир Назаров, комедия, приключения, семейный, 1965) [DVDRip, Не требуется] " />

Аплоадер: Админ, дата: 6-04-2013, 19:22, торрент скачан: 359 раз

Понравилась раздача? Посмотрите эти:
  • Акваланги на дне (Евгений Шерстобитов, боевик, приключения, семейный, 1965) ...
  • Нейтральные воды (Владимир Беренштейн, драма, 1968) [DVDRip, Не требуется]
  • Хозяин тайги (Владимир Назаров, криминал, 1968) [DVDRip, Не требуется]
  • Совсем пропащий (Георгий Данелия, приключения, 1973) [DVDRip, Не требуется] ...
  • Конец "Сатурна" (Виллен Азаров, Мосфильм, 1967) [DVDRip, Не требуется]
  • Приключения Толи Клюквина (Виктор Эйсымонт, комедия, семейный, 1964) [DVDRi ...
  • Город мастеров (Владимир Бычков, фэнтези, приключения, семейный, история, 1 ...
  • Гиперболоид инженера Гарина (Александр Гинцбург, фантастика, 1965) [DVDRip, ...
  • На графских развалинах (Владимир Скуйбин, приключения, семейный, 1957) [DVD ...
  • Фантазеры (Исаак Магитон, И. Сафарова, детский, 1965) [DVDRip, Не требуется ...
  • Бабушки надвое сказали (Валерий Харченко, Юрий Клебанов, комедия, 1979) [DV ...
  • Таинственный остров (Эдуард Пенцлин, фантастика, приключения, семейный, 194 ...
  • Сотрудник ЧК (Борис Волчек, боевик, история, 1963) [DVDRip, Не требуется]
  • Сегодня – новый аттракцион (Надежда Кошеверова, Аполлинарий Дудко, комедия, ...
  • Стряпуха (Эдмонд Кеосаян, комедия, 1965) [DVDRip, Не требуется]
  • Донская повесть (Владимир Фетин, драма, 1964) [DVDRip, Не требуется]
  • Драгоценный подарок (Александр Роу, семейный, 1956) [DVDRip, Не требуется]
  • Чудак-человек (Владимир Кочетов, комедия, 1962) [DVDRip, Не требуется]
  • Вера, надежда, любовь (Владимир Грамматиков, приключения, 1984) [DVDRip, Не ...
  • Мексиканец (Владимир Каплуновский, драма, 1955) [DVDRip, Не требуется]
  • Информация
    Посетители, находящиеся в группе Гости, не могут оставлять комментарии к данной публикации.