вход на сайт

Имя пользователя :
Пароль :

Восстановление пароля Регистрация
Ох, уж эта Настя! (Юрий Победоносцев, семейный, 1972) [DVDRip, Не требуется]
Рейтинг:
(голосов: 1)



[img]{THEME}/images/logopost.png[/img]



Ох, уж эта Настя!

Год выпуска: 1972
Страна: СССР
Производство: Студия Горького
Жанр: семейный

Режиссёр: Юрий Победоносцев
В ролях: Ирина Волкова, Татьяна Невская, Сергей Кусков, Наталья Гвоздикова, Александр Харитонов, Светлана Котикова, Нина Архипова, Наталья Егорова, Марина Сальникова, Елена Пяташихина

Перевод: Не требуется
Субтитры: Отсутствуют

Описание:
Веселая и поучительная история про школьницу Настю Рябинину, которой не интересно жить, как все. Она все время что-то выдумывает и рассказывает.

Из-за этого у Насти постоянно возникают неприятности в отношениях с учительницей, одноклассниками, старшей сестрой…


Дополнительно:
MediaInfo ▼Text
Общее
Полное имя :L:Ох, уж эта Настя!Ох, уж эта Настя!.avi
Формат :AVI
Размер :1.09 GiB
Продолжительность :01:12:30.496
Общий поток :2 159 Kbps
Программа кодирования :VirtualDubModRus 1.5.10.2 (build 2542/release)
Библиотека кодирования :VirtualDubMod build 2542/release

Видео
Идентификатор :0
Формат :MPEG-4 Visual
Параметр BVOP формата :1
Параметр Qpel формата :No
Параметр GMC формата :0
Параметр Matrix формата :Default (H.263)
Идентификатор кодека :DX50
Продолжительность :1h 12mn 30s 480ms
Битрейт :1 958 Kbps
Ширина :720 pixels
Высота :432 pixels
Соотношение сторон :1.667
Частота кадров :25.000 fps
Глубина цвета :8 bits
Подвыборка цветности :4:2:0
Цветовое пространство :YUV
Тип развертки :Progressive
Бит/(Пиксели*Кадры) :0.252
Размер потока :1 015 MiB (91%)
Библиотека кодирования :DivX503b2676p

Аудио #1
Идентификатор :1
Формат :AC-3
Формат/Информация :Audio Coding 3
Идентификатор кодека :2000
Продолжительность :01:12:30.496
Вид битрейта :Constant
Битрейт :192 Kbps
Канал(ы) :2 channels
Расположение каналов :Front: L R
Частота :48.0 KHz
Битовая глубина :16 bits
Метод сжатия :Lossy
Размер потока :99.6 MiB (9%)



Тех. данные:
Качеств
87feb713f34e6b330c21072a7edf954a978d6a8dОх, уж эта Настя! (Юрий Победоносцев, семейный, 1972) [DVDRip, Не требуется] Ох, уж эта Настя! (Юрий Победоносцев, семейный, 1972) [DVDRip, Не требуется] " />

Аплоадер: Админ, дата: 6-04-2013, 19:14, торрент скачан: 359 раз

Понравилась раздача? Посмотрите эти:
  • Айрик (Генрих Малян, драма, семейный, 1972) [DVDRip, Профессиональный (пол ...
  • Эзоп (Олег Рябоконь, драма, история, 1981) [DVDRip, Не требуется]
  • Четвертый (Александр Столпер, драма, 1972) [DVDRip, Не требуется]
  • Приключения Толи Клюквина (Виктор Эйсымонт, комедия, семейный, 1964) [DVDRi ...
  • Воскресный папа (Наум Бирман, драма, семейный, 1985) [DVDRip, Не требуется] ...
  • Двенадцать месяцев (2 части из 2) (Анатолий Граник, фэнтези, семейный, 1972 ...
  • Фантазеры (Исаак Магитон, И. Сафарова, детский, 1965) [DVDRip, Не требуется ...
  • Тропой бескорыстной любви (Агаси Бабаян, драма, 1972) [DVDRip, Не требуется ...
  • Чайка (Юлий Карасик, драма, 1972) [DVDRip, Не требуется]
  • Чудак из пятого «Б» (Илья Фрэз, комедия, семейный, 1972) [DVDRip, Не требуе ...
  • Как Иванушка-дурачок за чудом ходил (Надежда Кошеверова, фэнтези, семейный, ...
  • Бабушки надвое сказали (Валерий Харченко, Юрий Клебанов, комедия, 1979) [DV ...
  • Табачный капитан (Игорь Усов, мюзикл, комедия, история, 1972) [DVDRip, Не т ...
  • Таинственный остров (Эдуард Пенцлин, фантастика, приключения, семейный, 194 ...
  • Принц и нищий (Вадим Гаузнер, приключения, семейный, 1972) [DVDRip, Не треб ...
  • В лесах под Ковелем (3 части из 3) (Юрий Тупицкий, военный, история, 1984) ...
  • Драгоценный подарок (Александр Роу, семейный, 1956) [DVDRip, Не требуется]
  • Фонтан (Юрий Мамин, комедия, 1989) [DVDRip, Не требуется]
  • Карантин (Илья Фрэз, комедия, 1983) [DVDRip, Не требуется]
  • За облаками – небо (Юрий Егоров, драма, 1973) [DVDRip, Не требуется]
  • Информация
    Посетители, находящиеся в группе Гости, не могут оставлять комментарии к данной публикации.