вход на сайт

Имя пользователя :
Пароль :

Восстановление пароля Регистрация
По главной улице с оркестром (Петр Тодоровский, мюзикл, мелодрама, комедия, 1986) [DVDRip, Не требуется]
Рейтинг:
(голосов: 1)



[img]{THEME}/images/logopost.png[/img]



По главной улице с оркестром

Год выпуска: 1986
Страна: СССР
Производство: Мосфильм
Жанр: мюзикл, мелодрама, комедия

Режиссёр: Петр Тодоровский
В ролях: Олег Борисов, Лидия Федосеева, Шукшина
, Марина Зудина, Валентин Гафт, Игорь Костолевский, Валентина Теличкина, Олег Меньшиков, Людмила Максакова, Александр Лазарев, Светлана Немоляева

Перевод: Не требуется
Субтитры: Отсутствуют

Описание:
Такое бывает, наверное, у каждого: вдруг захочется круто изменить свою судьбу, начать «с чистого листа», не размениваться на пустяки, а шагать «по главной улице».

Герой фильма не ограничивается подобными размышлениями, он решает действовать: уходит со службы, покидает семью…


Дополнительно:
MediaInfo ▼Text
Общее
Полное имя :J:По главной улице с оркестромPo glavnoy ulice s orkestrom.avi
Формат :AVI
Размер :1.36 GiB
Продолжительность :01:28:26.920
Общий поток :2 204 Kbps
Программа кодирования :VirtualDubModRus 1.5.10.2 (build 2542/release)
Библиотека кодирования :VirtualDubMod build 2542/release

Видео
Идентификатор :0
Формат :MPEG-4 Visual
Параметр BVOP формата :1
Параметр Qpel формата :No
Параметр GMC формата :0
Параметр Matrix формата :Default (H.263)
Идентификатор кодека :DX50
Продолжительность :1h 28mn 26s 920ms
Битрейт :2 002 Kbps
Ширина :704 pixels
Высота :528 pixels
Соотношение сторон :1.333
Частота кадров :25.000 fps
Глубина цвета :8 bits
Подвыборка цветности :4:2:0
Цветовое пространство :YUV
Тип развертки :Progressive
Бит/(Пиксели*Кадры) :0.215
Размер потока :1.24 GiB (91%)
Библиотека кодирования :DivX503b1307p

Аудио #1
Идентификатор :1
Формат :AC-3
Формат/Информация :Audio Coding 3
Идентификатор кодека :2000
Продолжительность :01:28:26.912
Вид битрейта :Constant
Битрейт :192 Kbps
Канал(ы) :2 channels
Расположение каналов :Front: L R
Частота :48.0 KHz
Битовая глубина :16 bits
Метод сжатия :Lossy
Размер потока :121 MiB (9%)
c47701d2593f1e762e7077db6c77adfb49f6c027По главной улице с оркестром (Петр Тодоровский, мюзикл, мелодрама, комедия, 1986) [DVDRip, Не требуется] По главной улице с оркестром (Петр Тодоровский, мюзикл, мелодрама, комедия, 1986) [DVDRip, Не требуется] " />

Аплоадер: Админ, дата: 5-04-2013, 22:31, торрент скачан: 359 раз

Понравилась раздача? Посмотрите эти:
  • Военно-полевой роман (Петр Тодоровский, драма, мелодрама, 1983) [DVDRip, Не ...
  • Верность (Петр Тодоровский, мелодрама, военный, 1965) [DVDRip, Не требуется ...
  • Убийство на улице Данте (Михаил Ромм, драма, 1956) [DVDRip, Не требуется]
  • Покровские ворота (2 части из 2) (Михаил Козаков, мюзикл, драма, мелодрама, ...
  • Последняя жертва (Петр Тодоровский, драма, мелодрама, 1975) [DVDRip, Не тре ...
  • Всё наоборот (Виталий Фетисов, Владимир Грамматиков, мелодрама, комедия, 19 ...
  • Волшебная сила (Наум Бирман, мюзикл, комедия, семейный, 1970) [DVDRip, Не т ...
  • Моя любовь (Владимир Корш-Саблин, мюзикл, мелодрама, комедия, 1940) [DVDRip ...
  • Мистер Икс (Юлий Хмельницкий, мюзикл, мелодрама, комедия, 1958) [DVDRip, Не ...
  • Мама (Элизабета Бостан, мюзикл, фэнтези, семейный, 1976) [DVDRip, Не требуе ...
  • Любимая женщина механика Гаврилова (Петр Тодоровский, мелодрама, комедия, 1 ...
  • Князь Игорь (Роман Тихомиров, мюзикл, приключения, 1969) [DVDRip, Не требуе ...
  • Карнавал (2 части из 2) (Татьяна Лиознова, мюзикл, комедия, 1981) [DVDRip, ...
  • Сватовство гусара (Светлана Дружинина, мюзикл, мелодрама, комедия, 1979) [D ...
  • Табачный капитан (Игорь Усов, мюзикл, комедия, история, 1972) [DVDRip, Не т ...
  • Трембита (Олег Николаевский, мюзикл, мелодрама, комедия, 1968) [DVDRip, Не ...
  • Светлая личность (Александр Павловский, мюзикл, комедия, 1989) [DVDRip, Не ...
  • Табор уходит в небо (Эмиль Лотяну, мюзикл, драма, мелодрама, 1976) [DVDRip, ...
  • Ханума (2 части из 2) (Георгий Товстоногов, мюзикл, комедия, 1978) [DVDRip, ...
  • Сказ про то, как царь Петр арапа женил (Александр Митта, мюзикл, мелодрама, ...
  • Старомодная комедия (Эра Савельева, Татьяна Березанцева, мелодрама, 1978) [ ...
  • Проделки в старинном духе (Александр Панкратов, комедия, 1986) [DVDRip, Не ...
  • Почти смешная история (2 части из 2) (Петр Фоменко, мелодрама, комедия, 197 ...
  • Беспокойное хозяйство (Михаил Жаров, мюзикл, комедия, военный, 1945) [DVDRi ...
  • Шумный день (Анатолий Эфрос, Георгий Натансон, мелодрама, комедия, 1960) [D ...
  • Информация
    Посетители, находящиеся в группе Гости, не могут оставлять комментарии к данной публикации.