вход на сайт

Имя пользователя :
Пароль :

Восстановление пароля Регистрация
Покаяние (Тенгиз Абуладзе, драма, комедия, 1984) [DVDRip, Профессиональный (одноголосый, закадровый)]
Рейтинг:
(голосов: 1)



[img]{THEME}/images/logopost.png[/img]



Покаяние

Год выпуска: 1984
Страна: СССР
Производство: Грузия-фильм, Грузия-телефильм, Совэкспортфильм
Жанр: драма, комедия

Режиссёр: Тенгиз Абуладзе
В ролях: Автандил Махарадзе, Ия Нинидзе, Зейнаб Боцвадзе, Кетеван Абуладзе, Эдишер Гиоргобиани, Кахи Кавсадзе, Мераб Нинидзе, Нино Закариадзе, Нато Очигава, Борис Ципурия

Перевод: Профессиональный (одноголосый, закадровый)
Субтитры: Отсутствуют

Описание:
Действие развивается, будто вне времени, без строгого указания на тридцатые годы XX-го века. В образе диктатора Варлама Аравидзе можно узнать черты и Гитлера, и Муссолини, и Сталина, и Берии. Три поколения одной семьи расплачиваются за грехи отцов. Когда-то жертвами тоталитарного режима стали Сандро Баратели и его жена. Спустя годы их дочь Кети мстит за родителей…


Дополнительно:
MediaInfo ▼Text
Общее
Полное имя :D:Древо желания2. ПокаяниеPokayanie.avi
Формат :AVI
Размер :1.37 GiB
Продолжительность :02:24:15.760
Общий поток :1 357 Kbps
Программа кодирования :VirtualDubMod 1.5.4.1 (build 2066/release)
Библиотека кодирования :VirtualDubMod build 2066/release

Видео
Идентификатор :0
Формат :MPEG-4 Visual
Параметр BVOP формата :1
Параметр Qpel формата :No
Параметр GMC формата :0
Параметр Matrix формата :Default (H.263)
Идентификатор кодека :DX50
Продолжительность :2h 24mn 15s 760ms
Битрейт :1 219 Kbps
Ширина :576 pixels
Высота :432 pixels
Соотношение сторон :1.333
Частота кадров :25.000 fps
Глубина цвета :8 bits
Подвыборка цветности :4:2:0
Цветовое пространство :YUV
Тип развертки :Progressive
Бит/(Пиксели*Кадры) :0.196
Размер потока :1.23 GiB (90%)
Библиотека кодирования :DivX503b830p

Аудио #1
Идентификатор :1
Формат :MPEG Audio
Идентификатор кодека :55
Продолжительность :02:24:15.504
Вид битрейта :Constant
Битрейт :128 Kbps
Канал(ы) :2 channels
Частота :48.0 KHz
Метод сжатия :Lossy
Размер потока :132 MiB (9%)



Тех. данные:
Качество:DVDRip
Продолжительность:02:24:10 час
&
e852ebb6ddfb2ff1e11c7ccc3b2a016f6868e463Покаяние (Тенгиз Абуладзе, драма, комедия, 1984) [DVDRip, Профессиональный (одноголосый, закадровый)] Покаяние (Тенгиз Абуладзе, драма, комедия, 1984) [DVDRip, Профессиональный (одноголосый, закадровый)] " />

Аплоадер: Админ, дата: 5-04-2013, 22:11, торрент скачан: 359 раз

Понравилась раздача? Посмотрите эти:
  • Воздыхатель / Le soupirant (Пьер Этекс, комедия, 1962) [DVDRip, Профессиона ...
  • Лурджа Магданы (Тенгиз Абуладзе, Резо Чхеидзе, драма, 1955) [DVDRip, Не тре ...
  • Легенда о Сурамской крепости (Сергей Параджанов, Додо Абашидзе, драма, 1984 ...
  • Кукарача (Кети Долидзе, Сико Долидзе, драма, 1982) [DVDRip, Профессиональны ...
  • Берега (7 частей из 7) (Гизо Габескирия, Гига Лордкипанидзе, боевик, драма, ...
  • Чужая жена и муж под кроватью (Виталий Мельников, драма, 1984) [DVDRip, Не ...
  • Мольба (Тенгиз Абуладзе, драма, 1967) [DVDRip, Не требуется]
  • Древо желания (Тенгиз Абуладзе, драма, 1976) [DVDRip, Не требуется]
  • Ограбление / Bareuge salja (Hee-chan Ra, Комедия, 2007) [DVDRip, Профессион ...
  • Наперегонки с Луной / Racing with the Moon (Ричард Бенджамин, Драма, мелодр ...
  • Я, бабушка, Илико и Илларион (Тенгиз Абуладзе, мелодрама, комедия, 1962) [D ...
  • Зелиг / Zelig (Вуди Аллен, фэнтези, комедия, 1983) [DVDRip, Авторский (одно ...
  • Кутилы / Les bons vivants (Жиль Гранжье, Жорж Лотнер, драма, комедия, 1965) ...
  • Бог знает, мистер Аллисон / Heaven Knows, Mr. Allison (Джон Хьюстон, боевик ...
  • Розенкранц и Гильденштерн мертвы / Rosencrantz & Guildenstern Are Dead (Том ...
  • Урок любви / En lektion i karlek (Ингмар Бергман, драма, комедия, 1954) [DV ...
  • На хуторе у леса / Na samote u lesa (Иржи Менцель, драма, комедия, семейный ...
  • Уик-энд / Week End (Жан-Люк Годар, драма, комедия, 1967) [DVDRip, Профессио ...
  • Океан (Михаил Косырев-Нестеров, драма, 2008) [DVDRip, Профессиональный (одн ...
  • Медведи и я / The Bears and I (Бернард МакЭвети, драма, семейный, 1974) [DV ...
  • Информация
    Посетители, находящиеся в группе Гости, не могут оставлять комментарии к данной публикации.