вход на сайт

Имя пользователя :
Пароль :

Восстановление пароля Регистрация
Древо желания (Тенгиз Абуладзе, драма, 1976) [DVDRip, Не требуется]
Рейтинг:
(голосов: 1)



[img]{THEME}/images/logopost.png[/img]



Древо желания

Год выпуска: 1976
Страна: СССР
Производство: Грузия-фильм
Жанр: драма

Режиссёр: Тенгиз Абуладзе
В ролях: Лика Кавжарадзе, Сосо Джачвлиани, Заза Колелишвили, Котэ Даушвили, Софико Чиаурели, Кахи Кавсадзе, Эроси Манджгаладзе, Отар Мегвинетухуцеси, Рамаз Чхиквадзе, Георгий Гегечкори

Перевод: Не требуется
Субтитры: Отсутствуют

Описание:
Фильм-поэма, рассказывающий о чистом и сильном чувстве, втоптанном в грязь ханжеством и предрассудками, царившими в горных селах Грузии в начале века.

Т. Абуладзе так сказал о своем произведении: «Древо желания» — фильм о людях, озаренных мечтой. У каждого персонажа свой идеал. Один боготворит небо, другой землю, одни поклоняются плоти, другие возвышают дух. Одни умерщвляют плоть, другие душу…» Это один из фильмов трилогии, в которую входят также ленты «Мольба» и «Покаяние».


Дополнительно:
MediaInfo ▼Text
Общее
Полное имя :D:Древо желанияDrevo zhelaniya.avi
Формат :AVI
Размер :1.35 GiB
Продолжительность :01:41:17.088
Общий поток :1 914 Kbps
Программа кодирования :VirtualDubMod 1.5.10.2 (build 2540/release)
Библиотека кодирования :VirtualDubMod build 2540/release

Видео
Идентификатор :0
Формат :MPEG-4 Visual
Параметр BVOP формата :No
Параметр Qpel формата :No
Параметр GMC формата :0
Параметр Matrix формата :Default (H.263)
Идентификатор кодека :DX50
Продолжительность :1h 41mn 17s 80ms
Битрейт :1 776 Kbps
Ширина :656 pixels
Высота :488 pixels
Соотношение сторон :1.344
Частота кадров :25.000 fps
Глубина цвета :8 bits
Подвыборка цветности :4:2:0
Цветовое пространство :YUV
Тип развертки :Progressive
Бит/(Пиксели*Кадры) :0.222
Размер потока :1.26 GiB (93%)
Библиотека кодирования :DivX503b1328

Аудио #1
Идентификатор :1
Формат :MPEG Audio
Идентификатор кодека :55
Продолжительность :01:41:17.088
Вид битрейта :Constant
Битрейт :128 Kbps
Канал(ы) :2 channels
Частота :48.0 KHz
Метод сжатия :Lossy
Размер потока :92.7 MiB (7%)



Трилогия
1
9f75b7cbf631bd0da0615d471198d3fce25775bbДрево желания (Тенгиз Абуладзе, драма, 1976) [DVDRip, Не требуется] Древо желания (Тенгиз Абуладзе, драма, 1976) [DVDRip, Не требуется] " />

Аплоадер: Админ, дата: 5-04-2013, 22:08, торрент скачан: 359 раз

Понравилась раздача? Посмотрите эти:
  • Подранки (Николай Губенко, драма, 1976) [DVDRip, Не требуется]
  • Золотые яблоки (Фёдор Филиппов, семейный, 1954) [DVDRip, Не требуется]
  • Лурджа Магданы (Тенгиз Абуладзе, Резо Чхеидзе, драма, 1955) [DVDRip, Не тре ...
  • Дневной поезд (Инесса Селезнева, драма, 1976) [DVDRip, Не требуется]
  • Девушка со швейной машинкой (Михаил Чиаурели, Георгий Шенгелая, комедия, 19 ...
  • Берега (7 частей из 7) (Гизо Габескирия, Гига Лордкипанидзе, боевик, драма, ...
  • Мольба (Тенгиз Абуладзе, драма, 1967) [DVDRip, Не требуется]
  • Покаяние (Тенгиз Абуладзе, драма, комедия, 1984) [DVDRip, Профессиональный ...
  • Деревня Утка (Борис Бунеев, семейный, 1976) [DVDRip, Не требуется]
  • Капитанская дочка (Владимир Каплуновский, драма, 1958) [DVDRip, Не требуетс ...
  • Кадкина всякий знает (Анатолий Вехотко, Наталья Трощенко, мелодрама, 1976) ...
  • Пиковая Дама (Роман Тихомиров, мюзикл, драма, 1961) [DVDRip, Не требуется]
  • Печники (Виктор Храмов, драма, 1982) [DVDRip, Не требуется]
  • Термометр (Рамаз Шарабидзе, короткометражка, 1976) [TVRip, Профессиональный ...
  • Я, бабушка, Илико и Илларион (Тенгиз Абуладзе, мелодрама, комедия, 1962) [D ...
  • Хареба и Гоги (Георгий Шенгелая, драма, приключения, 1987) [DVDRip, Не треб ...
  • Табор уходит в небо (Эмиль Лотяну, мюзикл, драма, мелодрама, 1976) [DVDRip, ...
  • Самый красивый конь (Степан Пучинян, мелодрама, 1976) [DVDRip, Не требуется ...
  • У меня есть лев (2 части из 2) (Константин Бромберг, драма, комедия, приклю ...
  • Пока бьют часы (Геннадий Васильев, фэнтези, семейный, 1976) [DVDRip, Не тре ...
  • Информация
    Посетители, находящиеся в группе Гости, не могут оставлять комментарии к данной публикации.