вход на сайт

Имя пользователя :
Пароль :

Восстановление пароля Регистрация
Последняя жертва (Петр Тодоровский, драма, мелодрама, 1975) [DVDRip, Не требуется]
Рейтинг:
(голосов: 1)



[img]{THEME}/images/logopost.png[/img]



Последняя жертва

Год выпуска: 1975
Страна: СССР
Производство: Мосфильм
Жанр: драма, мелодрама

Режиссёр: Петр Тодоровский
В ролях: Маргарита Володина, Олег Стриженов, Михаил Глузский, Леонид Куравлёв, Ольга Науменко, Владимир Кенигсон, Валерий Филатов, Мария Виноградова, Павел Винник, Лионелла Пырьева

Перевод: Не требуется
Субтитры: Отсутствуют

Описание:
Женщина, которая любит, готова пожертвовать ради спасения любимого всем своим состоянием. Чем же ответит на это Вадим Дульчин, красавец и игрок? И как далеко может зайти женщина, которая его любит?..


Дополнительно:
MediaInfo ▼Text
Общее
Полное имя :D:Последняя жертваPoslednyaya zhertva.avi
Формат :AVI
Размер :1.35 GiB
Продолжительность :01:33:29.920
Общий поток :2 072 Kbps
Программа кодирования :VirtualDubModRus 1.5.10.2 (build 2542/release)
Библиотека кодирования :VirtualDubMod build 2542/release

Видео
Идентификатор :0
Формат :MPEG-4 Visual
Параметр BVOP формата :1
Параметр Qpel формата :No
Параметр GMC формата :0
Параметр Matrix формата :Default (H.263)
Идентификатор кодека :DX50
Продолжительность :1h 33mn 29s 920ms
Битрейт :1 871 Kbps
Ширина :720 pixels
Высота :336 pixels
Соотношение сторон :2.143
Частота кадров :25.000 fps
Глубина цвета :8 bits
Подвыборка цветности :4:2:0
Цветовое пространство :YUV
Тип развертки :Progressive
Бит/(Пиксели*Кадры) :0.309
Размер потока :1.22 GiB (90%)
Библиотека кодирования :DivX503b2292p

Аудио #1
Идентификатор :1
Формат :AC-3
Формат/Информация :Audio Coding 3
Идентификатор кодека :2000
Продолжительность :01:33:29.920
Вид битрейта :Constant
Битрейт :192 Kbps
Канал(ы) :2 channels
Расположение каналов :Front: L R
Частота :48.0 KHz
Битовая глубина :16 bits
Метод сжатия :Lossy
Размер потока :128 MiB (9%)



Тех. данные:
Качество:DVDRip
Продолжительность:01:33:20 час

Ф
a487409b5e6b957d9fecfbb4a08e9bdf00efb12dПоследняя жертва (Петр Тодоровский, драма, мелодрама, 1975) [DVDRip, Не требуется] Последняя жертва (Петр Тодоровский, драма, мелодрама, 1975) [DVDRip, Не требуется] " />

Аплоадер: Админ, дата: 5-04-2013, 21:35, торрент скачан: 359 раз

Понравилась раздача? Посмотрите эти:
  • Журавушка (Николай Москаленко, драма, мелодрама, 1968) [DVDRip, Не требуетс ...
  • Нейтральные воды (Владимир Беренштейн, драма, 1968) [DVDRip, Не требуется]
  • Каштанка (Роман Балаян, приключения, 1975) [DVDRip, Не требуется]
  • История кавалера де Грие и Манон Леско (Роман Виктюк, драма, мелодрама, 197 ...
  • Дама с собачкой (Иосиф Хейфиц, драма, мелодрама, 1959) [DVDRip, Не требуетс ...
  • Военно-полевой роман (Петр Тодоровский, драма, мелодрама, 1983) [DVDRip, Не ...
  • Выстрел (Наум Трахтенберг, драма, 1966) [DVDRip, Не требуется]
  • Верность (Петр Тодоровский, мелодрама, военный, 1965) [DVDRip, Не требуется ...
  • По главной улице с оркестром (Петр Тодоровский, мюзикл, мелодрама, комедия, ...
  • Афоня (Георгий Данелия, драма, мелодрама, комедия, 1975) [DVDRip, Не требуе ...
  • Звезда пленительного счастья (2 части из 2) (Владимир Мотыль, драма, мелодр ...
  • Оптимистическая трагедия (Самсон Самсонов, драма, военный, история, 1963) [ ...
  • Неподсуден (Владимир Краснопольский, Валерий Усков, драма, 1969) [DVDRip, Н ...
  • Любимая женщина механика Гаврилова (Петр Тодоровский, мелодрама, комедия, 1 ...
  • Интердевочка (Петр Тодоровский, драма, мелодрама, 1989) [DVDRip, Не требует ...
  • Ты и я (Лариса Шепитько, драма, 1971) [DVDRip, Не требуется]
  • Чайка (Юлий Карасик, драма, 1972) [DVDRip, Не требуется]
  • Трактористы (Иван Пырьев, драма, комедия, 1939) [DVDRip, Не требуется]
  • Сказ про то, как царь Петр арапа женил (Александр Митта, мюзикл, мелодрама, ...
  • Почти смешная история (2 части из 2) (Петр Фоменко, мелодрама, комедия, 197 ...
  • Шофер поневоле (Надежда Кошеверова, комедия, 1958) [DVDRip, Не требуется]
  • В добрый час! (Виктор Эйсымонт, драма, мелодрама, 1956) [DVDRip, Не требует ...
  • Мексиканец (Владимир Каплуновский, драма, 1955) [DVDRip, Не требуется]
  • Воскресенье, половина седьмого (4 части из 4) (Вадим Зобин, криминал, детек ...
  • К Черному морю (Андрей Тутышкин, мелодрама, комедия, 1957) [DVDRip, Не треб ...
  • Информация
    Посетители, находящиеся в группе Гости, не могут оставлять комментарии к данной публикации.