вход на сайт

Имя пользователя :
Пароль :

Восстановление пароля Регистрация
Путь к сердцу (Виктор Ивченко, мелодрама, 1970) [DVDRip, Не требуется]
Рейтинг:
(голосов: 1)



[img]{THEME}/images/logopost.png[/img]



Путь к сердцу

Год выпуска: 1970
Страна: СССР
Производство: Студия Довженко
Жанр: мелодрама

Режиссёр: Виктор Ивченко
В ролях: Николай Маруфов, Нинель Мышкова, Юрий Лавров, Степан Олексенко, Ганна Николаева, Александр Ануров, Владимир Алексеенко, Павел Кормунин, Павел Панков, Лев Перфилов

Перевод: Не требуется
Субтитры: Отсутствуют

Описание:
Профессор Андрей Приходько работает над проблемой трансплантации сердца. В один из радостных дней доктор решает наладить свою личную жизнь и сделать предложение любимой женщине Валентине. Однако сын, тяжело перенесший смерть матери, против женитьбы отца. Понимая сложность ситуации, Валентина расстается с любимым другом. Приходько находит в себе силы справиться с депрессией и готовится к первой операции по пересадке сердца.

Данные о фильме на http://www.imdb.com/name/nm0412217/отсутствуют

Дополнительно:
MediaInfo ▼Text
Общее
Полное имя :D:Путь к сердцуPut k serdcu.avi
Формат :AVI
Размер :1.25 GiB
Продолжительность :01:34:12.880
Общий поток :1 902 Kbps
Библиотека кодирования :VirtualDub build 32817/release

Видео
Идентификатор :0
Формат :MPEG-4 Visual
Профиль формата :Advanced [email protected]
Параметр BVOP формата :2
Параметр Qpel формата :No
Параметр GMC формата :0
Параметр Matrix формата :Default (MPEG)
Идентификатор кодека :XVID
Продолжительность :1h 34mn 12s 880ms
Битрейт :1 701 Kbps
Ширина :720 pixels
Высота :416 pixels
Соотношение сторон :1.731
Частота кадров :25.000 fps
Глубина цвета :8 bits
Подвыборка цветности :4:2:0
Цветовое пространство :YUV
Тип развертки :Progressive
Бит/(Пиксели*Кадры) :0.227
Размер потока :1.12 GiB (89%)
Библиотека кодирования :XviD0046

Аудио #1
Идентификатор :1
Формат :MPEG Audio
Идентификатор кодека :55
Продолжительность :01:34:12.103
Вид битрейта :Constant
Битрейт :192 Kbps
Канал(ы) :2 channels
Частота :44.1 KHz
Метод сжатия :Lossy
Размер потока :129 MiB (10%)



Тех. данные:
Качество:DVDRip
c2853697ec8b620eab1aae21fc91dfbf10024e56Путь к сердцу (Виктор Ивченко, мелодрама, 1970) [DVDRip, Не требуется] Путь к сердцу (Виктор Ивченко, мелодрама, 1970) [DVDRip, Не требуется] " />

Аплоадер: Админ, дата: 5-04-2013, 21:33, торрент скачан: 359 раз

Понравилась раздача? Посмотрите эти:
  • Дружок (Виктор Эйсымонт, семейный, 1958) [DVDRip, Не требуется]
  • Вас вызывает Таймыр (Алексей Коренев, комедия, 1970) [DVDRip, Не требуется] ...
  • Бой под Соколом (Александр Разумный, военный, 1942) [DVDRip, Не требуется]
  • Абориген (Елена Николаева, драма, 1988) [DVDRip, Не требуется]
  • С любимыми не расставайтесь (Павел Арсенов, драма, мелодрама, 1979) [DVDRip ...
  • Начало (Глеб Панфилов, мелодрама, комедия, 1970) [DVDRip, Не требуется]
  • Зеленые цепочки (Григорий Аронов, приключения, 1970) [DVDRip, Не требуется] ...
  • До первой крови (Владимир Фокин, драма, 1989) [DVDRip, Не требуется]
  • Два дня чудес (Лев Мирский, комедия, 1970) [DVDRip, Не требуется]
  • Опекун (Эдгар Ходжикян, Альберт С. Мкртчян, комедия, 1970) [DVDRip, Не треб ...
  • Пропавшая грамота (Борис Ивченко, фэнтези, комедия, 1972) [DVDRip, Професси ...
  • Чудный характер (Константин Воинов, драма, 1970) [DVDRip, Не требуется]
  • Суд (Аида Манасарова, Владимир Скуйбин, драма, детектив, 1963) [DVDRip, Не ...
  • Печники (Виктор Храмов, драма, 1982) [DVDRip, Не требуется]
  • Карусель (Михаил Швейцер, комедия, 1970) [DVDRip, Не требуется]
  • Я вас любил... (Илья Фрэз, мелодрама, комедия, 1967) [DVDRip, Не требуется] ...
  • Самый красивый конь (Степан Пучинян, мелодрама, 1976) [DVDRip, Не требуется ...
  • Уходя - уходи (Виктор Трегубович, комедия, 1978) [DVDRip, Не требуется]
  • Приключения желтого чемоданчика (Илья Фрэз, комедия, семейный, 1970) [DVDRi ...
  • Король манежа (Юрий Чулюкин, семейный, 1970) [DVDRip, Не требуется]
  • ЧП – Чрезвычайное происшествие (2 части из 2-х) (Виктор Ивченко, боевик, 19 ...
  • Гений (2 части из 2) (Виктор Сергеев, Комедия, криминал, 1991) [DVDRip, Не ...
  • Александр Попов (Виктор Эйсымонт, Герберт Раппапорт, драма, биография, 1949 ...
  • В добрый час! (Виктор Эйсымонт, драма, мелодрама, 1956) [DVDRip, Не требует ...
  • Сердца четырех (Константин Юдин, мелодрама, комедия, 1941) [DVDRip, Не треб ...
  • Информация
    Посетители, находящиеся в группе Гости, не могут оставлять комментарии к данной публикации.