вход на сайт

Имя пользователя :
Пароль :

Восстановление пароля Регистрация
Сапоги (Владимир Немоляев, короткометражка, драма, комедия, 1957) [DVDRip, Не требуется]
Рейтинг:
(голосов: 1)



[img]{THEME}/images/logopost.png[/img]



Сапоги

Год выпуска: 1957
Страна: СССР
Производство: Мосфильм
Жанр: короткометражка, драма, комедия

Режиссёр: Владимир Немоляев
В ролях: Михаил Жаров, Михаил Яншин, Анастасия Георгиевская, Александр Сашин-Никольский
,
Андрей Тутышкин

Перевод: Не требуется
Субтитры: Отсутствуют

Описание:
По одноименному рассказу А.П.Чехова.


Дополнительно:
MediaInfo ▼Text
Общее
Полное имя :D:СапогиSapogi.1957.avi
Формат :AVI
Размер :260 MiB
Продолжительность :00:23:47.600
Общий поток :1 530 Kbps

Видео
Идентификатор :0
Формат :MPEG-4 Visual
Профиль формата :Advanced [email protected]
Параметр BVOP формата :2
Параметр Qpel формата :No
Параметр GMC формата :0
Параметр Matrix формата :Default (H.263)
Идентификатор кодека :XVID
Продолжительность :23mn 47s 600ms
Битрейт :1 392 Kbps
Ширина :720 pixels
Высота :572 pixels
Соотношение сторон :1.259
Частота кадров :25.000 fps
Глубина цвета :8 bits
Подвыборка цветности :4:2:0
Цветовое пространство :YUV
Тип развертки :Progressive
Бит/(Пиксели*Кадры) :0.135
Размер потока :237 MiB (91%)
Библиотека кодирования :XviD0050

Аудио #1
Идентификатор :1
Формат :MPEG Audio
Идентификатор кодека :55
Продолжительность :00:23:47.561
Вид битрейта :Constant
Битрейт :128 Kbps
Канал(ы) :2 channels
Частота :48.0 KHz
Метод сжатия :Lossy
Размер потока :21.8 MiB (8%)



Тех. данные:
Качество:DVDRip
Продолжительность:00:23:40 час

Формат: AVI
Видео кодек: XviD
Аудио кодек: MPA1L3
Видео: 720 x 572 (5:4), 25.000 fps, 1 392 Kbps, 0.135 bit/pixel
Аудио : 48.0 KHz, , 2 channels (), 128 Kbps



1141d1446baa0251801cf95f071dfe5ea1e28c4fСапоги (Владимир Немоляев, короткометражка, драма, комедия, 1957) [DVDRip, Не требуется] Сапоги (Владимир Немоляев, короткометражка, драма, комедия, 1957) [DVDRip, Не требуется] " />

Аплоадер: Админ, дата: 5-04-2013, 21:31, торрент скачан: 359 раз

Понравилась раздача? Посмотрите эти:
  • На подмостках сцены (Константин Юдин, драма, комедия, 1956) [DVDRip, Не тре ...
  • Борец и клоун (Борис Барнет, Константин Юдин, драма, спорт, 1957) [DVDRip, ...
  • Летят журавли (Михаил Калатозов, драма, мелодрама, военный, 1957) [DVDRip, ...
  • Девушка без адреса (Эльдар Рязанов, мелодрама, комедия, 1957) [DVDRip, Не т ...
  • Высота (Александр Зархи, мелодрама, 1957) [DVDRip, Не требуется]
  • Где это видано, где это слыхано (Валентин Горлов, короткометражка, комедия, ...
  • Сегодня увольнения не будет (Александр Гордон, Андрей Тарковский, короткоме ...
  • Драма (Герман Ливанов, короткометражка, комедия, 1960) [DVDRip, Не требуетс ...
  • На графских развалинах (Владимир Скуйбин, приключения, семейный, 1957) [DVD ...
  • Капитанская дочка (Владимир Каплуновский, драма, 1958) [DVDRip, Не требуетс ...
  • Печёнка (Арман Манарян, короткометражка, комедия, 1962) [DVDRip, Не требует ...
  • Рядом с нами (Адольф Бергункер, драма, 1957) [DVDRip, Не требуется]
  • Мульт-Салют 3 ч. из 30: Верлиока/Опять двойка/Кошкин дом/Петя и Красная Шап ...
  • Мульт-Салют. 9 ч. из 30: В некотором царстве…/Снежная королева (Иван Иванов ...
  • А.П. Чехов. (Экранизация рассказов) (Георгий Товстоногов, Герман Ливанов, К ...
  • Тихий Дон (3 части из 3) (Сергей Герасимов, драма, военный, 1957) [DVDRip, ...
  • Бравый солдат Швейк / Dobry vojak Svejk (Карел Стеклы, комедия, военный, 19 ...
  • Хозяин и слуга (Дмитрий Кесаянц, короткометражка, комедия, 1963) [DVDRip, Н ...
  • К Черному морю (Андрей Тутышкин, мелодрама, комедия, 1957) [DVDRip, Не треб ...
  • Как рождаются тосты (Всеволод Массино, Оскар Герц, Андрей Тутышкин, коротко ...
  • Информация
    Посетители, находящиеся в группе Гости, не могут оставлять комментарии к данной публикации.