вход на сайт

Имя пользователя :
Пароль :

Восстановление пароля Регистрация
Попрыгунья (Самсон Самсонов, драма, 1955) [DVDRip, Не требуется]
Рейтинг:
(голосов: 1)



[img]{THEME}/images/logopost.png[/img]



Попрыгунья

Год выпуска: 1955
Страна: СССР
Производство: Мосфильм
Жанр: драма

Режиссёр: Самсон Самсонов
В ролях: Людмила Целиковская, Сергей Бондарчук, Владимир Дружников, Евгений Тетерин, А. Алексин, Анатолий Бобровский, Василий Бокарев, Георгий Георгиу, Михаил Глузский, Владимир Гусев

Перевод: Не требуется
Субтитры: Отсутствуют

Описание:
Осип Иванович Дымов, титулярный советник и врач тридцати одного года, служит в двух больницах одновременно: ординатором и прозектором. С девяти часов утра и до полудня принимает больных, потом едет вскрывать трупы. Но его доходов едва хватает на покрытие расходов жены, помешанной на талантах и знаменитостях в художественной и артистической среде, которых она ежедневно принимает в доме.


Дополнительно:
MediaInfo ▼Text
Общее
Полное имя :D:ПопрыгуньяPoprygunya.avi
Формат :AVI
Размер :1.27 GiB
Продолжительность :01:26:12.960
Общий поток :2 110 Kbps
Программа кодирования :VirtualDubMod 1.5.4.1 (build 2178/release)
Библиотека кодирования :VirtualDub-MPEG2 build 24600/release

Видео
Идентификатор :0
Формат :MPEG-4 Visual
Профиль формата :Advanced [email protected]
Параметр BVOP формата :1
Параметр Qpel формата :No
Параметр GMC формата :0
Параметр Matrix формата :Custom
Идентификатор кодека :XVID
Продолжительность :1h 26mn 12s 960ms
Битрейт :1 973 Kbps
Ширина :704 pixels
Высота :528 pixels
Соотношение сторон :1.333
Частота кадров :25.015 fps
Глубина цвета :8 bits
Подвыборка цветности :4:2:0
Цветовое пространство :YUV
Тип развертки :Progressive
Бит/(Пиксели*Кадры) :0.212
Размер потока :1.19 GiB (93%)
Библиотека кодирования :XviD0047

Аудио #1
Идентификатор :1
Формат :MPEG Audio
Идентификатор кодека :55
Продолжительность :01:26:12.960
Вид битрейта :Constant
Битрейт :128 Kbps
Канал(ы) :2 channels
Частота :48.0 KHz
Метод сжатия :Lossy
Размер потока :78.9 MiB (6%)



Тех. данные:
Качество:DVDRip
Продолжительность:0
1f48e2a6c83a1aba4062727a977e576df80b2687Попрыгунья (Самсон Самсонов, драма, 1955) [DVDRip, Не требуется] Попрыгунья (Самсон Самсонов, драма, 1955) [DVDRip, Не требуется] " />

Аплоадер: Админ, дата: 4-04-2013, 22:14, торрент скачан: 359 раз

Понравилась раздача? Посмотрите эти:
  • Матрос Чижик (Владимир Браун, мелодрама, 1955) [DVDRip, Не требуется]
  • Дорога (Александр Столпер, боевик, 1955) [DVDRip, Не требуется]
  • Дело Румянцева (Иосиф Хейфиц, драма, криминал, детектив, 1955) [DVDRip, Не ...
  • Девушка джигит (Павел Боголюбов, комедия, 1955) [DVDRip, Не требуется]
  • Человек идёт за солнцем (Михаил Калик, драма, 1961) [DVDRip, Не требуется]
  • Старшина (Николай Кошелев, драма, 1979) [DVDRip, Не требуется]
  • Путевка в Жизнь (Николай Экк, драма, 1931) [DVDRip, Не требуется]
  • Оптимистическая трагедия (Самсон Самсонов, драма, военный, история, 1963) [ ...
  • Одиноким предоставляется общежитие (Самсон Самсонов, мелодрама, комедия, 19 ...
  • Михайло Ломоносов (Александр Иванов, драма, история, 1955) [DVDRip, Не треб ...
  • Лес (Владимир Мотыль, драма, 1980) [DVDRip, Не требуется]
  • Левша (Сергей Овчаров, драма, комедия, 1986) [DVDRip, Не требуется]
  • Капитанская дочка (Владимир Каплуновский, драма, 1958) [DVDRip, Не требуетс ...
  • За витриной универмага (Самсон Самсонов, комедия, 1955) [DVDRip, Не требует ...
  • Степь (2 части из 2) (Сергей Бондарчук, драма, история, 1977) [DVDRip, Не т ...
  • Судьба человека (Сергей Бондарчук, драма, военный, биография, 1959) [DVDRip ...
  • За витриной универмага (Самсон Самсонов, комедия, 1955 год) [DVDrip, оригин ...
  • Мышеловка (Самсон Самсонов, Драма, 1990) [DVDRip, Не требуется]
  • Солдат удачи / Soldier of Fortune (Эдвард Дмитрык, приключения, драма, 1955 ...
  • Запасной игрок (Семен Тимошенко, комедия, спорт, 1955) [DVDRip, Не требуетс ...
  • Шведская спичка (Константин Юдин, комедия, детектив, 1955) [DVDRip, Не треб ...
  • Два капитана (Владимир Венгеров, приключения, 1955) [ТVRip, Не требуется]
  • Александр Попов (Виктор Эйсымонт, Герберт Раппапорт, драма, биография, 1949 ...
  • Максим Перепелица (Анатолий Граник, комедия, 1955) [DVDRip, Не требуется]
  • Мексиканец (Владимир Каплуновский, драма, 1955) [DVDRip, Не требуется]
  • Информация
    Посетители, находящиеся в группе Гости, не могут оставлять комментарии к данной публикации.