вход на сайт

Имя пользователя :
Пароль :

Восстановление пароля Регистрация
Приключения Толи Клюквина (Виктор Эйсымонт, комедия, семейный, 1964) [DVDRip, Не требуется]
Рейтинг:
(голосов: 1)



[img]{THEME}/images/logopost.png[/img]



Приключения Толи Клюквина

Год выпуска: 1964
Страна: СССР
Производство: Студия Горького
Жанр: комедия, семейный

Режиссёр: Виктор Эйсымонт
В ролях: Андрей Филатов, Татьяна Пельтцер, Роман Боровков, Нина Гребешкова, Евгений Весник, Борис Новиков, Марк Перцовский, Сергей Филиппов, Светлана Харитонова, Владимир Смирнов

Перевод: Не требуется
Субтитры: Отсутствуют

Описание:
Толя Клюквин отправляется в гости к своему другу. Неожиданно дорогу ему перебегает черная кошка. Испугавшись, мальчик поворачивает в другую сторону. Вот тут-то и подстерегают его опасности и неприятности.


Дополнительно:
MediaInfo ▼Text
Общее
Полное имя :L:Приключения Толи КлюквинаPriklucheniya Toli Klukvina.DVDRip.avi
Формат :AVI
Размер :1.09 GiB
Продолжительность :01:03:28.800
Общий поток :2 467 Kbps
Программа кодирования :VirtualDubModRus 1.5.10.2 (build 2542/release)
Библиотека кодирования :VirtualDubMod build 2542/release

Видео
Идентификатор :0
Формат :MPEG-4 Visual
Параметр BVOP формата :1
Параметр Qpel формата :No
Параметр GMC формата :0
Параметр Matrix формата :Default (H.263)
Идентификатор кодека :DX50
Продолжительность :1h 3mn 28s 800ms
Битрейт :2 233 Kbps
Ширина :688 pixels
Высота :512 pixels
Соотношение сторон :1.344
Частота кадров :25.000 fps
Глубина цвета :8 bits
Подвыборка цветности :4:2:0
Цветовое пространство :YUV
Тип развертки :Progressive
Бит/(Пиксели*Кадры) :0.254
Размер потока :1 014 MiB (91%)
Библиотека кодирования :DivX503b2676p

Аудио #1
Идентификатор :1
Формат :AC-3
Формат/Информация :Audio Coding 3
Идентификатор кодека :2000
Продолжительность :01:03:28.768
Вид битрейта :Constant
Битрейт :224 Kbps
Канал(ы) :2 channels
Расположение каналов :Front: L R
Частота :48.0 KHz
Битовая глубина :16 bits
Метод сжатия :Lossy
Размер потока :102 MiB (9%)Тех. данные:
Качество:&nbs
7303fe5ae9be5d2510b354a678bf0ba78b46d8caПриключения Толи Клюквина (Виктор Эйсымонт, комедия, семейный, 1964) [DVDRip, Не требуется] Приключения Толи Клюквина (Виктор Эйсымонт, комедия, семейный, 1964) [DVDRip, Не требуется] " />

Аплоадер: Админ, дата: 4-04-2013, 21:53, торрент скачан: 359 раз

Понравилась раздача? Посмотрите эти:
  • Дружок (Виктор Эйсымонт, семейный, 1958) [DVDRip, Не требуется]
  • Где это видано, где это слыхано (Валентин Горлов, короткометражка, комедия, ...
  • Тайна железной двери (Михаил Юзовский, фантастика, приключения, семейный, 1 ...
  • Ох, уж эта Настя! (Юрий Победоносцев, семейный, 1972) [DVDRip, Не требуется ...
  • Пакет (Владимир Назаров, комедия, приключения, семейный, 1965) [DVDRip, Не ...
  • Иван да Марья (Борис Рыцарев, фэнтези, мелодрама, комедия, семейный, музыка ...
  • На графских развалинах (Владимир Скуйбин, приключения, семейный, 1957) [DVD ...
  • Чудак из пятого «Б» (Илья Фрэз, комедия, семейный, 1972) [DVDRip, Не требуе ...
  • Четвертый перископ (Виктор Эйсымонт, приключения, 1942) [DVDRip, Не требует ...
  • Судьба барабанщика (Виктор Эйсымонт, драма, приключения, 1956) [DVDRip, Не ...
  • Табачный капитан (Игорь Усов, мюзикл, комедия, история, 1972) [DVDRip, Не т ...
  • Таинственный остров (Эдуард Пенцлин, фантастика, приключения, семейный, 194 ...
  • Уходя - уходи (Виктор Трегубович, комедия, 1978) [DVDRip, Не требуется]
  • Приключения желтого чемоданчика (Илья Фрэз, комедия, семейный, 1970) [DVDRi ...
  • Донская повесть (Владимир Фетин, драма, 1964) [DVDRip, Не требуется]
  • Здравствуйте, я ваша тетя! (Виктор Титов, комедия, 1974) [DVDRip, Не требуе ...
  • Гений (2 части из 2) (Виктор Сергеев, Комедия, криминал, 1991) [DVDRip, Не ...
  • Ключи от неба (Виктор Иванов, комедия, 1964) [DVDRip, Не требуется]
  • Александр Попов (Виктор Эйсымонт, Герберт Раппапорт, драма, биография, 1949 ...
  • В добрый час! (Виктор Эйсымонт, драма, мелодрама, 1956) [DVDRip, Не требует ...
  • Информация
    Посетители, находящиеся в группе Гости, не могут оставлять комментарии к данной публикации.