вход на сайт

Имя пользователя :
Пароль :

Восстановление пароля Регистрация
Путешествие пана Кляксы / Podroze pana Kleksa (Кшиштоф Градовский, фэнтези, приключения, семейный, 1986) [DVDRip, Профессиональный (полное дублирование)]
Рейтинг:
(голосов: 1)



[img]{THEME}/images/logopost.png[/img]



Путешествие пана Кляксы / Podroze pana Kleksa

Год выпуска: 1986
Страна: Польша, СССР
Производство: Студия Горького, Совинфильм, Zespol Filmowy "Zodiak"
Жанр: фэнтези, приключения, семейный

Режиссёр: Кшиштоф Градовский
В ролях: Петр Фрончевский, Малгожата Островска, Хенрик Биста, Збигнев Бучковский, Георгий Вицин, Ирина Губанова, Иржи Бончак, Марчин Барански, Веслав Михниковский, Владислав Ковальский

Перевод: Профессиональный (полное дублирование)
Субтитры: Отсутствуют

Описание:
Продолжение фильма «Академия пана Кляксы». На этот раз в стране сказок произошли чрезвычайные события: таинственные силы украли бочку с волшебными чернилами, и стало нечем записывать сказки!


Дополнительно:
MediaInfo ▼Text
Общее
Полное имя :L:3.РаздачаПутешествия пана КляксыPuteshestvie.Pana.Klaksy.avi
Формат :AVI
Размер :1.44 GiB
Продолжительность :02:37:27.400
Общий поток :1 313 Kbps

Видео
Идентификатор :0
Формат :MPEG-4 Visual
Профиль формата :Advanced [email protected]
Параметр BVOP формата :2
Параметр Qpel формата :No
Параметр GMC формата :0
Параметр Matrix формата :Custom
Идентификатор кодека :XVID
Продолжительность :2h 37mn 27s 400ms
Битрейт :1 140 Kbps
Ширина :688 pixels
Высота :528 pixels
Соотношение сторон :1.303
Частота кадров :25.000 fps
Глубина цвета :8 bits
Подвыборка цветности :4:2:0
Цветовое пространство :YUV
Тип развертки :Progressive
Бит/(Пиксели*Кадры) :0.125
Размер потока :1.25 GiB (87%)
Библиотека кодирования :XviD0046

Аудио #1
Идентификатор :1
Формат :MPEG Audio
Идентификатор кодека :55
Продолжительность :02:37:27.239
Вид битрейта :Constant
Битрейт :160 Kbps
Канал(ы) :2 channels
Частота :48.0 KHz
Метод сжатия :Lossy
Размер потока :180 MiB (12%)



Тех. данные:
Качество:DVDRip
Продолжительность:02:37:20 час

Формат: AVI
Видео кодек: XviD
Аудио кодек: MPA1L3
Видео: 688 x 528 (4:3), 25.000 fps, 1 140 Kbps, 0.125 bit/pixel
Аудио : 48.0 KHz, , 2 channels (), 1
5ddaa3d5006b9211e504a54780b0063f75732913Путешествие пана Кляксы / Podroze pana Kleksa (Кшиштоф Градовский, фэнтези, приключения, семейный, 1986) [DVDRip, Профессиональный (полное дублирование)] Путешествие пана Кляксы / Podroze pana Kleksa (Кшиштоф Градовский, фэнтези, приключения, семейный, 1986) [DVDRip, Профессиональный (полное дублирование)] " />

Аплоадер: Админ, дата: 4-04-2013, 21:27, торрент скачан: 359 раз

Понравилась раздача? Посмотрите эти:
  • Айрик (Генрих Малян, драма, семейный, 1972) [DVDRip, Профессиональный (пол ...
  • Конец операции «Резидент» (2 части из 2) (Вениамин Дорман, боевик, приключе ...
  • Гикор (Сергей Исраелян, драма, семейный, 1982) [DVDRip, Профессиональный (п ...
  • Черный принц Аджуба (Шаши Капур, Геннадий Васильев, фэнтези, приключения, 1 ...
  • Сказание о храбром витязе Фэт-Фрумосе (2 части из 2) (Влад Иовицэ, Николай ...
  • Академия пана Кляксы (2 части из 2) (Кшиштоф Градовский, фэнтези, семейный, ...
  • Путешествия Гулливера / Gullivers Travels (Чарльз Старридж, фэнтези, приклю ...
  • Мальчик с пальчик (Гунар Пиесис, фэнтези, семейный, 1985) [DVDRip, Професси ...
  • Маленькая принцесса / A Little Princess (Альфонсо Куарон, фэнтези, драма, с ...
  • Черная гора (Александр Згуриди, драма, семейный, 1972) [DVDRip, Профессиона ...
  • Пропавшая грамота (Борис Ивченко, фэнтези, комедия, 1972) [DVDRip, Професси ...
  • Мульт-Салют. 7 ч. из 30: Приключения Буратино/Чиполлино (Иван Иванов-Вано, ...
  • Подарок чёрного колдуна (Борис Рыцарев, фэнтези, приключения, семейный, 197 ...
  • Проданный смех (2 части из 2) (Леонид Нечаев, мюзикл, фэнтези, приключения, ...
  • Снежная королева (Геннадий Казанский, фэнтези, драма, приключения, семейный ...
  • Русалочка (Владимир Бычков, мюзикл, фэнтези, мелодрама, семейный, 1976) [DV ...
  • Приключения маленького Мука (Елизавета Кимягарова, мюзикл, семейный, 1983) ...
  • Пока бьют часы (Геннадий Васильев, фэнтези, семейный, 1976) [DVDRip, Не тре ...
  • Золотое путешествие Синдбада / The Golden Voyage Of Sinbad (Гордон Хесслер ...
  • Таинственный остров / Остров приключений / Mysterious Island (Сай Эндфилд, ...
  • Академия пана Кляксы (Кшиштоф Градовский, фэнтези, семейный,1983) [DVDRip ...
  • На серебряной планете / Na srebrnym globie (Анджей Жулавски, фантастика, фэ ...
  • Зачарованный лес / Cudesna suma (Milan Blazekovic, Doro Vlado Hreljanovic, ...
  • Пассажирка / Pasazerka (Анджей Мунк, Витольд Лесевич, драма, военный, истор ...
  • Девичий заговор / Rzeczpospolita babska (Хероним Пшибыл, комедия, 1969) [DV ...
  • Информация
    Посетители, находящиеся в группе Гости, не могут оставлять комментарии к данной публикации.