вход на сайт

Имя пользователя :
Пароль :

Восстановление пароля Регистрация
Академия пана Кляксы (2 части из 2) (Кшиштоф Градовский, фэнтези, семейный, 1983) [DVDRip, Профессиональный (полное дублирование)]
Рейтинг:
(голосов: 1)



[img]{THEME}/images/logopost.png[/img]



Академия пана Кляксы (2 части из 2)

Год выпуска: 1983
Страна: СССР , Польша
Производство: Студия Горького, Совинфильм, Zespol Filmowy "Zodiak"
Жанр: фэнтези, семейный

Режиссёр: Кшиштоф Градовский
В ролях: Петр Фрончевский, Славек Вронка, Леон , емчик
, Бронислав Павлик, Веслав Михниковский, Адам Пробош, Лембит Ульфсак, Роберт Плющинский, Ирэна Карель, Здзислава Сосницкая

Перевод: Профессиональный (полное дублирование)
Субтитры: Отсутствуют

Описание:
Тихий, скромный мальчик Адам Нескладушка, больше всего на свете любивший читать, однажды попадает в волшебный мир — сказочную Академию пана Кляксы. С такими же любознательными ребятами, как и он, герой учится языку растений и животных, умению видеть интересные сны и делать добрые дела.


Дополнительно:
MediaInfo ▼Text
"1 часть" ▼Общее
Полное имя :L:Академия пана Кляксыakademia pana klyaksyakademia.pana.klyaksy.cd1.avi
Формат :AVI
Размер :705 MiB
Продолжительность :01:21:29.960
Общий поток :1 210 Kbps
Программа кодирования :Nandub v1.0rc2
Библиотека кодирования :Nandub build 1852/release

Видео
Идентификатор :0
Формат :MPEG-4 Visual
Параметр BVOP формата :1
Параметр Qpel формата :No
Параметр GMC формата :2
Параметр Matrix формата :Default (H.263)
Идентификатор кодека :DX50
Продолжительность :1h 21mn 29s 960ms
Битрейт :1 069 Kbps
Ширина :640 pixels
Высота :368 pixels
Соотношение сторон :1.739
Частота кадров :25.000 fps
Глубина цвета :8 bits
Цветовое пространство :YUV
Тип развертки :Progressive
Бит/(Пиксели*Кадры) :0.182
Размер потока :623 MiB (88%)
Библиотека кодирования :DivX500Build413

Аудио #1
Идентификатор :1
Формат :MPEG Audio
Идентификатор кодека :55
Продолжительность :01:21:29.952
Вид битрейта :Constant
Битрейт :128 Kbps
Канал(ы) :2 channels
Частота :48.0 KHz
Метод сжатия :Lossy
Размер потока :74.6 MiB (11%)

"2 часть" ▼Общее
Полное имя :L:1. Академия пана Кляксыakademia pana klyaksyakademia.pana.
41db8b9d6d38dad703b5478b23614fc5d585c202Академия пана Кляксы (2 части из 2) (Кшиштоф Градовский, фэнтези, семейный, 1983) [DVDRip, Профессиональный (полное дублирование)] Академия пана Кляксы (2 части из 2) (Кшиштоф Градовский, фэнтези, семейный, 1983) [DVDRip, Профессиональный (полное дублирование)] " />

Аплоадер: Админ, дата: 4-04-2013, 21:24, торрент скачан: 359 раз

Понравилась раздача? Посмотрите эти:
  • Геркус Мантас (2 части из 2) (Марионас Гедрис, драма, 1972) [SATRip, Профес ...
  • Ошибка резидента (2 части из 2) (Вениамин Дорман, детектив, 1968) [DVDRip, ...
  • Возвращение резидента (2 части из 2) (Вениамин Дорман, триллер, 1982) [DVDR ...
  • Отпуск за свой счет (2 части из 2) (Виктор Титов, мелодрама, комедия, 1981) ...
  • Месье Ленуар, который... (2 части из 2) (Александр Орлов, телеспектакль, др ...
  • Макар-следопыт (3 части из 3) (Николай Ковальский, семейный, 1984) [DVDRip, ...
  • Сказание о храбром витязе Фэт-Фрумосе (2 части из 2) (Влад Иовицэ, Николай ...
  • Путешествие пана Кляксы / Podroze pana Kleksa (Кшиштоф Градовский, фэнтези, ...
  • Двенадцать месяцев (2 части из 2) (Анатолий Граник, фэнтези, семейный, 1972 ...
  • Соло для слона с оркестром (2 части из 2) (Ольдржих Липский, комедия, семей ...
  • Степь (2 части из 2) (Сергей Бондарчук, драма, история, 1977) [DVDRip, Не т ...
  • Чучело (2 части из 2) (Ролан Быков, Аркадий Хайт, драма, 1983) [DVDRip, Не ...
  • Раннее, раннее утро... (3 части из 3) (Валерий Харченко, семейный, 1983) [T ...
  • Проданный смех (2 части из 2) (Леонид Нечаев, мюзикл, фэнтези, приключения, ...
  • 31 июня (2 части из 2) (Леонид Квинихидзе, мюзикл, фэнтези, мелодрама, 1978 ...
  • Сказка о Звездном мальчике (2 части из 2) (Леонид Нечаев, фэнтези, 1983) [D ...
  • Тихий Дон (3 части из 3) (Сергей Герасимов, драма, военный, 1957) [DVDRip, ...
  • Рок-н-ролл для принцесс (2 части из 2) (Радомир Василевский, Комедия, семей ...
  • Приключения маленького Мука (Елизавета Кимягарова, мюзикл, семейный, 1983) ...
  • Академия пана Кляксы (Кшиштоф Градовский, фэнтези, семейный,1983) [DVDRip ...
  • Информация
    Посетители, находящиеся в группе Гости, не могут оставлять комментарии к данной публикации.