вход на сайт

Имя пользователя :
Пароль :

Восстановление пароля Регистрация
Конец "Сатурна" (Виллен Азаров, Мосфильм, 1967) [DVDRip, Не требуется]
Рейтинг:
(голосов: 1)



[img]{THEME}/images/logopost.png[/img]



Конец "Сатурна"

Год выпуска: 1967
Страна: СССР
Производство: военный
Жанр: Мосфильм

Режиссёр: Виллен Азаров
В ролях: Михаил Волков, Георгий Жжёнов, Евгений Кузнецов, Аркадий Толбузин, Владимир Кашпур, Владимир Муравьев, Николай Граббе,Бруно Фрейндлих, Владимир Покровский, Николай Прокопович

Перевод: Не требуется
Субтитры: Отсутствуют

Описание:
Получив сведения о немецких шпионах, советские разведчики смогли дезинформировать умного и коварного врага с помощью фальшивых донесений.

Деятельность мощного разведоргана «Сатурн» оказывается нейтрализованной…


Дополнительно:
MediaInfo ▼Text
Общее
Полное имя :J:Конец СатурнаKonec Saturna.DVDRip.avi
Формат :AVI
Размер :1.46 GiB
Продолжительность :01:31:19.080
Общий поток :2 295 Kbps
Программа кодирования :VirtualDubModRus 1.5.10.2 (build 2542/release)
Библиотека кодирования :VirtualDubMod build 2542/release

Видео
Идентификатор :0
Формат :MPEG-4 Visual
Параметр BVOP формата :Yes
Параметр Qpel формата :No
Параметр GMC формата :0
Параметр Matrix формата :Default (H.263)
Идентификатор кодека :DX50
Продолжительность :1h 31mn 19s 80ms
Битрейт :2 029 Kbps
Ширина :704 pixels
Высота :384 pixels
Соотношение сторон :1.833
Частота кадров :25.000 fps
Глубина цвета :8 bits
Подвыборка цветности :4:2:0
Цветовое пространство :YUV
Тип развертки :Progressive
Бит/(Пиксели*Кадры) :0.300
Размер потока :1.29 GiB (88%)
Библиотека кодирования :DivX503b2676p

Аудио #1
Идентификатор :1
Формат :AC-3
Формат/Информация :Audio Coding 3
Идентификатор кодека :2000
Продолжительность :01:31:13.664
Вид битрейта :Constant
Битрейт :256 Kbps
Канал(ы) :2 channels
Расположение каналов :Front: L R
Частота :48.0 KHz
Битовая глубина :16 bits
Метод сжатия :Lossy
Размер потока :167 MiB (11%)



Тех. данные:
Качество:DVDRip
Продолжительность:0
a25344c4800f8636d09c3be6af0e73b5c77582e1Конец "Сатурна" (Виллен Азаров, Мосфильм, 1967) [DVDRip, Не требуется] Конец "Сатурна" (Виллен Азаров, Мосфильм, 1967) [DVDRip, Не требуется] " />

Аплоадер: Админ, дата: 4-04-2013, 21:12, торрент скачан: 359 раз

Понравилась раздача? Посмотрите эти:
  • Журавушка (Николай Москаленко, драма, мелодрама, 1968) [DVDRip, Не требуетс ...
  • Дни хирурга Мишкина (3 части из 3) (Вадим Зобин, драма, 1967) [DVDRip, Не т ...
  • Анна Каренина (2 части из 2) (Александр Зархи, драма, мелодрама, 1967) [DVD ...
  • Ошибка резидента (2 части из 2) (Вениамин Дорман, детектив, 1968) [DVDRip, ...
  • Судьба резидента (2 части из 2) (Вениамин Дорман, детектив, приключения, 19 ...
  • Возвращение резидента (2 части из 2) (Вениамин Дорман, триллер, 1982) [DVDR ...
  • Конец операции «Резидент» (2 части из 2) (Вениамин Дорман, боевик, приключе ...
  • Убийство на улице Данте (Михаил Ромм, драма, 1956) [DVDRip, Не требуется]
  • Путь в "Сатурн" (Виллен Азаров, военный, 1967) [DVDRip, Не требуется]
  • Бой после победы (2 части из 2) (Виллен Азаров, триллер, военный, 1972) [DV ...
  • Операция «Трест» (4 части из 4) (Сергей Колосов, приключения, история, 1967 ...
  • Неисправимый лгун (Виллен Азаров, комедия, 1973) [DVDRip, Не требуется]
  • Комиссар (Александр Аскольдов, драма, военный, 1967) [DVDRip, Не требуется] ...
  • Конец "Сатурна"( Виллен Азаров, военный, 1967 год) [DVDrip, ориги ...
  • Адъютант его превосходительства (5 частей из 5) (Евгений Ташков, мелодрама, ...
  • Степь (2 части из 2) (Сергей Бондарчук, драма, история, 1977) [DVDRip, Не т ...
  • Сказка о царе Салтане (Александр Птушко, фэнтези, семейный, 1967) [DVDRip, ...
  • Неисправимый лгун (Виллен Азаров, Комедия, 1973) [DVDRip, Оригинал]
  • Взрослые дети (Виллен Азаров, драма, комедия, 1962) [DVDRip, Не требуется] ...
  • Мексиканец (Владимир Каплуновский, драма, 1955) [DVDRip, Не требуется]
  • Информация
    Посетители, находящиеся в группе Гости, не могут оставлять комментарии к данной публикации.