вход на сайт

Имя пользователя :
Пароль :

Восстановление пароля Регистрация
Путь в "Сатурн" (Виллен Азаров, военный, 1967) [DVDRip, Не требуется]
Рейтинг:
(голосов: 1)



[img]{THEME}/images/logopost.png[/img]



Путь в "Сатурн"

Год выпуска: 1967
Страна: СССР
Производство: Мосфильм
Жанр: военный

Режиссёр: Виллен Азаров
В ролях: Михаил Волков, Георгий Жжёнов, Аркадий Толбузин, Евгений Кузнецов, Леонид Чубаров, Владимир Ферапонтов, Григорий Гай, Николай Граббе, Зоя Исаева, Владимир Кашпур

Перевод: Не требуется
Субтитры: Отсутствуют

Описание:
Группе советских разведчиков удается внедриться в немецкий центр шпионажа «Сатурн», осуществляющий подрывную деятельность на московском направлении. Доступ к секретной информации противника позволяет нашим тайным агентам успешно осуществлять задания командования…


Дополнительно:
MediaInfo ▼Text
Общее
Полное имя :J:Путь в «СатурнPut` v Saturn.DVDRip.avi
Формат :AVI
Размер :1.37 GiB
Продолжительность :01:18:19.960
Общий поток :2 499 Kbps
Программа кодирования :VirtualDubModRus 1.5.10.2 (build 2542/release)
Библиотека кодирования :VirtualDubMod build 2542/release

Видео
Идентификатор :0
Формат :MPEG-4 Visual
Параметр BVOP формата :Yes
Параметр Qpel формата :No
Параметр GMC формата :0
Параметр Matrix формата :Default (H.263)
Идентификатор кодека :DX50
Продолжительность :1h 18mn 19s 960ms
Битрейт :2 233 Kbps
Ширина :688 pixels
Высота :368 pixels
Соотношение сторон :1.870
Частота кадров :25.000 fps
Глубина цвета :8 bits
Подвыборка цветности :4:2:0
Цветовое пространство :YUV
Тип развертки :Progressive
Бит/(Пиксели*Кадры) :0.353
Размер потока :1.22 GiB (89%)
Библиотека кодирования :DivX503b2676p

Аудио #1
Идентификатор :1
Формат :AC-3
Формат/Информация :Audio Coding 3
Идентификатор кодека :2000
Продолжительность :01:18:16.000
Вид битрейта :Constant
Битрейт :256 Kbps
Канал(ы) :2 channels
Расположение каналов :Front: L R
Частота :48.0 KHz
Битовая глубина :16 bits
Метод сжатия :Lossy
Размер потока :143 MiB (10%)



Тех. данные:
Качество:DVDRip
Продолжительность:01:
26f96baa7df609c19796f9e4aa97f2a25a3650e4Путь в "Сатурн" (Виллен Азаров, военный, 1967) [DVDRip, Не требуется] Путь в "Сатурн" (Виллен Азаров, военный, 1967) [DVDRip, Не требуется] " />

Аплоадер: Админ, дата: 4-04-2013, 21:07, торрент скачан: 359 раз

Понравилась раздача? Посмотрите эти:
  • Дни хирурга Мишкина (3 части из 3) (Вадим Зобин, драма, 1967) [DVDRip, Не т ...
  • "Мерседес" уходит от погони (Юрий Ляшенко, военный, 1980) [DVDRip, Не требу ...
  • Ошибка резидента (2 части из 2) (Вениамин Дорман, детектив, 1968) [DVDRip, ...
  • Судьба резидента (2 части из 2) (Вениамин Дорман, детектив, приключения, 19 ...
  • Возвращение резидента (2 части из 2) (Вениамин Дорман, триллер, 1982) [DVDR ...
  • Конец "Сатурна" (Виллен Азаров, Мосфильм, 1967) [DVDRip, Не требуется]
  • Бой после победы (2 части из 2) (Виллен Азаров, триллер, военный, 1972) [DV ...
  • Балтийское небо (2 части из 2) (Владимир Венгеров, драма, военный, история, ...
  • Операция «Трест» (4 части из 4) (Сергей Колосов, приключения, история, 1967 ...
  • Неисправимый лгун (Виллен Азаров, комедия, 1973) [DVDRip, Не требуется]
  • Комиссар (Александр Аскольдов, драма, военный, 1967) [DVDRip, Не требуется] ...
  • Конец "Сатурна"( Виллен Азаров, военный, 1967 год) [DVDrip, ориги ...
  • Адъютант его превосходительства (5 частей из 5) (Евгений Ташков, мелодрама, ...
  • Степь (2 части из 2) (Сергей Бондарчук, драма, история, 1977) [DVDRip, Не т ...
  • Тихий Дон (3 части из 3) (Сергей Герасимов, драма, военный, 1957) [DVDRip, ...
  • Подпольный обком действует (4 части из 4) (Анатолий Буковский, военный, 197 ...
  • В лесах под Ковелем (3 части из 3) (Юрий Тупицкий, военный, история, 1984) ...
  • Взрослые дети (Виллен Азаров, драма, комедия, 1962) [DVDRip, Не требуется] ...
  • Р.В.С. (Алексей Мороз, военный, 1977) [DVDRip, (2х)Оригинал (русский)]
  • Женя, Женечка и «Катюша» (Владимир Мотыль, мелодрама, комедия, военный, 196 ...
  • Информация
    Посетители, находящиеся в группе Гости, не могут оставлять комментарии к данной публикации.