вход на сайт

Имя пользователя :
Пароль :

Восстановление пароля Регистрация
Путевка в Жизнь (Николай Экк, драма, 1931) [DVDRip, Не требуется]
Рейтинг:
(голосов: 1)



[img]{THEME}/images/logopost.png[/img]



Путевка в Жизнь

Год выпуска: 1931
Страна: СССР
Производство: Межрабпомфильм
Жанр: драма

Режиссёр: Николай Экк
В ролях: Николай Баталов, Йыван Кырля, Михаил Джагофаров, Михаил Жаров, Александр Новиков, Мария Андропова, Владимир Весновский, Мария Гонта, Божак Беспризорных, Виктор Лазарев

Перевод: Не требуется
Субтитры: Отсутствуют

Описание:
1923 год. В стране идет борьба с голодом, разрухой. Десятки тысяч осиротевших, беспризорных детей скитаются по дорогам. Создается трудовая коммуна, в которой их должны собрать и перевоспитать…


Дополнительно:
MediaInfo ▼Text
Общее
Полное имя :L:Путевка в жизнь.1931Putevka_V_Jizn.avi
Формат :AVI
Размер :1.09 GiB
Продолжительность :01:46:27.760
Общий поток :1 471 Kbps
Программа кодирования :VirtualDubMod 1.5.4.1 (build 2178/release)
Библиотека кодирования :VirtualDubMod build 2178/release

Видео
Идентификатор :0
Формат :MPEG-4 Visual
Профиль формата :Advanced [email protected]
Параметр BVOP формата :1
Параметр Qpel формата :No
Параметр GMC формата :0
Параметр Matrix формата :Custom
Идентификатор кодека :XVID
Продолжительность :1h 46mn 27s 760ms
Битрейт :1 209 Kbps
Ширина :512 pixels
Высота :384 pixels
Соотношение сторон :1.333
Частота кадров :25.000 fps
Глубина цвета :8 bits
Подвыборка цветности :4:2:0
Цветовое пространство :YUV
Тип развертки :Progressive
Бит/(Пиксели*Кадры) :0.246
Размер потока :920 MiB (82%)
Библиотека кодирования :XviD0047

Аудио #1
Идентификатор :1
Формат :AC-3
Формат/Информация :Audio Coding 3
Идентификатор кодека :2000
Продолжительность :01:46:25.408
Вид битрейта :Constant
Битрейт :256 Kbps
Канал(ы) :2 channels
Расположение каналов :Front: L R
Частота :48.0 KHz
Битовая глубина :16 bits
Метод сжатия :Lossy
Размер потока :195 MiB (17%)
Язык &nb
a39cabf0f126f1eb5fab4409014efa42ad85d2b9Путевка в Жизнь (Николай Экк, драма, 1931) [DVDRip, Не требуется] Путевка в Жизнь (Николай Экк, драма, 1931) [DVDRip, Не требуется] " />

Аплоадер: Админ, дата: 3-04-2013, 20:51, торрент скачан: 359 раз

Понравилась раздача? Посмотрите эти:
  • Подранки (Николай Губенко, драма, 1976) [DVDRip, Не требуется]
  • Журавушка (Николай Москаленко, драма, мелодрама, 1968) [DVDRip, Не требуетс ...
  • Из жизни отдыхающих (Николай Губенко, драма, мелодрама, 1980) [DVDRip, Не т ...
  • Евдокия (Полная реставрация) (Татьяна Лиознова, драма, 1961) [DVDRip, Не тр ...
  • Дни лётные (Николай Литус, Леонид Ризин, драма, 1965) [DVDRip, Не требуется ...
  • Убийство на улице Данте (Михаил Ромм, драма, 1956) [DVDRip, Не требуется]
  • Старшина (Николай Кошелев, драма, 1979) [DVDRip, Не требуется]
  • Прощай, шпана замоскворецкая... (Александр Панкратов, драма, мелодрама, 198 ...
  • Далеко от Москвы (Александр Столпер, драма, 1950) [DVDRip, Не требуется]
  • Завтрак на траве (Николай Александрович, детский, комедия, 1979) [DVDRip, Н ...
  • Ой, вы, гуси... (Лидия Боброва, Драма, 1991) [DVDRip, Не требуется]
  • Моя любовь (Владимир Корш-Саблин, мюзикл, мелодрама, комедия, 1940) [DVDRip ...
  • Левша (Сергей Овчаров, драма, комедия, 1986) [DVDRip, Не требуется]
  • Мы с вами где-то встречались (Николай Досталь, Андрей Тутышкин, комедия, 19 ...
  • Печники (Виктор Храмов, драма, 1982) [DVDRip, Не требуется]
  • Дядя Ваня (Андрей Кончаловский, драма, 1971) [DVDRip, Не требуется]
  • Небывальщина (Сергей Овчаров, комедия, 1983) [DVDRip, Не требуется]
  • Карусель (Михаил Швейцер, комедия, 1970) [DVDRip, Не требуется]
  • Славный малый (Борис Барнет, военный, 1943) [DVDRip, Не требуется]
  • Соловей (Надежда Кошеверова, мюзикл, семейный, 1979) [DVDRip, Не требуется] ...
  • Золотая речка (Вениамин Дорман, приключения, 1977) [DVDRip, Не требуется]
  • Р.В.С. (Алексей Мороз, военный, 1977) [DVDRip, (2х)Оригинал (русский)]
  • Дом на дюнах (Дмитрий Салынский, приключения, 1984) [DVDRip, Не требуется]
  • Кутузов (Владимир Петров, драма, 1943) [DVDRip, Не требуется]
  • Карьера Димы Горина (Фрунзе Довлатян, Лев Мирский, комедия, 1962) [DVDRip, ...
  • Информация
    Посетители, находящиеся в группе Гости, не могут оставлять комментарии к данной публикации.