вход на сайт

Имя пользователя :
Пароль :

Восстановление пароля Регистрация
Пётр Первый (Владимир Петров, драма, военный, биография, 1937) [DVDRip, Не требуется]
Рейтинг:
(голосов: 1)



[img]{THEME}/images/logopost.png[/img]



Пётр Первый

Год выпуска: 1937
Страна: СССР
Производство: Ленфильм
Жанр: драма, военный, биография

Режиссёр: Владимир Петров
В ролях: Николай Симонов, Михаил Жаров, Николай Черкасов, Михаил Тарханов, Виктор Добровольский, Алла Тарасова, Константин Гибшман, Николай Орлов, Федор Богданов, Владимир Гарин

Перевод: Не требуется
Субтитры: Отсутствуют

Описание:
Конец XVII — начало XVIII столетия. Период становления Великой Российской Империи, время крупных реформ и тайных заговоров, великих воинских побед и дворцовых переворотов, безудержного веселья ассамблей и жестокого кровопролития казней.

О жизни, государственной и военной деятельности Петра Первого — первого российского императора — рассказывает этот фильм.


Дополнительно:
MediaInfo ▼Text
Общее
Полное имя :L:Петр ПервыйПётр Первый (1937-1938).avi
Формат :AVI
Размер :2.17 GiB
Продолжительность :03:35:44.600
Общий поток :1 441 Kbps

Видео
Идентификатор :0
Формат :MPEG-4 Visual
Профиль формата :Advanced [email protected]
Параметр BVOP формата :2
Параметр Qpel формата :No
Параметр GMC формата :0
Параметр Matrix формата :Default (H.263)
Идентификатор кодека :XVID
Продолжительность :3h 35mn 44s 600ms
Битрейт :1 300 Kbps
Ширина :688 pixels
Высота :512 pixels
Соотношение сторон :1.344
Частота кадров :25.000 fps
Глубина цвета :8 bits
Подвыборка цветности :4:2:0
Цветовое пространство :YUV
Тип развертки :Progressive
Бит/(Пиксели*Кадры) :0.148
Размер потока :1.96 GiB (90%)
Библиотека кодирования :XviD0050

Аудио #1
Идентификатор :1
Формат :MPEG Audio
Идентификатор кодека :55
Продолжительность :03:35:44.320
Вид битрейта :Constant
Битрейт :128 Kbps
Канал(ы) :2 channels
Частота :48.0 KHz
Метод сжатия :Lossy
Размер потока :198 MiB (9%)



Тех. данные:
Качество:DVDRip
Продолжительность:03:35:40 час

Формат: AVI
Видео кодек: XviD
Аудио кодек: MPA1L3
Видео: 688 x 512 (4:3), 25.000 fps, 1 300 Kbps, 0.148 bit/pixel
Аудио : 48.0 K
5f91710e9823206a2d6cbcb4a654d4f14e8d5867Пётр Первый (Владимир Петров, драма, военный, биография, 1937) [DVDRip, Не требуется] Пётр Первый (Владимир Петров, драма, военный, биография, 1937) [DVDRip, Не требуется] " />

Аплоадер: Админ, дата: 3-04-2013, 20:41, торрент скачан: 359 раз

Понравилась раздача? Посмотрите эти:
  • Бой под Соколом (Александр Разумный, военный, 1942) [DVDRip, Не требуется]
  • Открытая книга (Владимир Фетин, драма, биография, 1973) [DVDRip, Не требуе ...
  • Путевка в Жизнь (Николай Экк, драма, 1931) [DVDRip, Не требуется]
  • Сапоги (Владимир Немоляев, короткометражка, драма, комедия, 1957) [DVDRip, ...
  • Балтийское небо (2 части из 2) (Владимир Венгеров, драма, военный, история, ...
  • Баламут (Владимир Роговой, драма, комедия, 1978) [DVDRip, Не требуется]
  • Оптимистическая трагедия (Самсон Самсонов, драма, военный, история, 1963) [ ...
  • Неподсуден (Владимир Краснопольский, Валерий Усков, драма, 1969) [DVDRip, Н ...
  • Капитанская дочка (Владимир Каплуновский, драма, 1958) [DVDRip, Не требуетс ...
  • Повесть о «Неистовом» (Борис Бабочкин, драма, военный, 1947) [DVDRip, Перев ...
  • Служили два товарища (Евгений Карелов, драма, комедия, военный, 1968) [DVDR ...
  • Юность Петра (Сергей Герасимов, драма, биография, 1980) [DVDRip, Не требует ...
  • Судьба человека (Сергей Бондарчук, драма, военный, биография, 1959) [DVDRip ...
  • Пётр Первый (Владимир Петров, драма, биография, история 1937-1939) [DVDRip, ...
  • Беспокойное хозяйство (Михаил Жаров, мюзикл, комедия, военный, 1945) [DVDRi ...
  • Адмирал Нахимов (Всеволод Пудовкин, драма, военный, биография, история, 194 ...
  • Александр Попов (Виктор Эйсымонт, Герберт Раппапорт, драма, биография, 1949 ...
  • Кутузов (Владимир Петров, драма, 1943) [DVDRip, Не требуется]
  • Суворов (Михаил Доллер, Всеволод Пудовкин, драма, военный, биография, истор ...
  • Котовский (Александр Файнциммер, военный, биография, история, 1942) [DVDRip ...
  • Информация
    Посетители, находящиеся в группе Гости, не могут оставлять комментарии к данной публикации.