вход на сайт

Имя пользователя :
Пароль :

Восстановление пароля Регистрация
Полонез Огинского (Лев Голуб, драма, военный, 1971) [DVDRip, Не требуется]
Рейтинг:
(голосов: 1)



[img]{THEME}/images/logopost.png[/img]



Полонез Огинского

Год выпуска: 1971
Страна: СССР
Производство: Беларусьфильм
Жанр: драма, военный

Режиссёр: Лев Голуб
В ролях: Геннадий Юхтин, Олев Эскола, Геннадий Гарбук, Павел Кормунин, Галина Макарова, Леонид Крюк, Феликс Эйнас, Борис Тихонов

Перевод: Не требуется
Субтитры: Отсутствуют

Описание:
Повесть военных лет. Осиротевший маленький скрипач вместе со своим старшим другом проводят одну за другой серьезные операции в тылу врага.


Дополнительно:
MediaInfo ▼Text
Общее
Полное имя :L:Полонез ОгинскогоPolonez.Oginskogo.(1971).DVDRip.avi
Формат :AVI
Размер :1.37 GiB
Продолжительность :01:23:33.520
Общий поток :2 343 Kbps
Программа кодирования :VirtualDubMod 1.5.4.1 (build 2178/release)

Видео
Идентификатор :0
Формат :MPEG-4 Visual
Параметр BVOP формата :No
Параметр Qpel формата :No
Параметр GMC формата :0
Параметр Matrix формата :Default (H.263)
Идентификатор кодека :DX50
Продолжительность :1h 23mn 33s 520ms
Битрейт :2 144 Kbps
Ширина :688 pixels
Высота :256 pixels
Соотношение сторон :2.688
Частота кадров :25.000 fps
Глубина цвета :8 bits
Подвыборка цветности :4:2:0
Цветовое пространство :YUV
Тип развертки :Progressive
Бит/(Пиксели*Кадры) :0.487
Размер потока :1.25 GiB (92%)
Библиотека кодирования :DivX503b1328

Аудио #1
Идентификатор :1
Формат :AC-3
Формат/Информация :Audio Coding 3
Идентификатор кодека :2000
Продолжительность :01:23:33.344
Вид битрейта :Constant
Битрейт :192 Kbps
Канал(ы) :2 channels
Расположение каналов :Front: L R
Частота :48.0 KHz
Битовая глубина :16 bits
Метод сжатия :Lossy
Размер потока :115 MiB (8%)



Тех. данные:
Качество:DVDRip
Продолжительность:01:23:30 час

Формат: AVI
Видео кодек: DivX
Аудио кодек: AC3
Видео: 688 x 256 (2.688), 25.000 fps, 2 144 Kbps, 0.487 bit/pixel
Аудио : 48.0 KHz, Audio Coding 3, 2 channels (Front: L R),
4ecd08fde81b9056e44911513c491399de3cd7a8Полонез Огинского (Лев Голуб, драма, военный, 1971) [DVDRip, Не требуется] Полонез Огинского (Лев Голуб, драма, военный, 1971) [DVDRip, Не требуется] " />

Аплоадер: Админ, дата: 3-04-2013, 20:31, торрент скачан: 359 раз

Понравилась раздача? Посмотрите эти:
  • Жаворонок (Никита Курихин, Леонид Менакер, драма, военный, 1964) [DVDRip, Н ...
  • Белорусский вокзал (Андрей Смирнов, драма, 1971) [DVDRip, Не требуется]
  • Летят журавли (Михаил Калатозов, драма, мелодрама, военный, 1957) [DVDRip, ...
  • Даурия (2 части из 2) (Виктор Трегубович, боевик, драма, мелодрама, приключ ...
  • Старшина (Николай Кошелев, драма, 1979) [DVDRip, Не требуется]
  • Украденный поезд (Владимир Янчев, драма, 1971) [DVDRip, Профессиональный (п ...
  • Проверка на дорогах (Алексей Герман, драма, военный, 1971) [DVDRip, Не треб ...
  • Вся королевская рать (3 части из 3) (Наум Ардашников, Александр Гуткович, д ...
  • Оптимистическая трагедия (Самсон Самсонов, драма, военный, история, 1963) [ ...
  • Ой, вы, гуси... (Лидия Боброва, Драма, 1991) [DVDRip, Не требуется]
  • Назови пароль! / U gori raste zelen bor (Антун Врдоляк, драма, военный, 197 ...
  • Комиссар (Александр Аскольдов, драма, военный, 1967) [DVDRip, Не требуется] ...
  • Повесть о «Неистовом» (Борис Бабочкин, драма, военный, 1947) [DVDRip, Перев ...
  • Повесть о настоящем человеке (Александр Столпер, драма, военный, 1948) [DVD ...
  • Ты и я (Лариса Шепитько, драма, 1971) [DVDRip, Не требуется]
  • Печники (Виктор Храмов, драма, 1982) [DVDRip, Не требуется]
  • Дядя Ваня (Андрей Кончаловский, драма, 1971) [DVDRip, Не требуется]
  • Тень (Реставрация) (Надежда Кошеверова, фэнтези, драма, мелодрама, комедия, ...
  • Славный малый (Борис Барнет, военный, 1943) [DVDRip, Не требуется]
  • Шельменко-денщик (Андрей Тутышкин, мюзикл, комедия, 1971) [DVDRip, Не требу ...
  • Старухи (Геннадий Сидоров, Драма, 2003) [DVDRip, Не требуется]
  • Красная площадь (Василий Ордынский, драма, военный, 1971) [DVDRip, Не требу ...
  • Судьба человека (Сергей Бондарчук, драма, военный, биография, 1959) [DVDRip ...
  • Болотные солдаты (Александр Мачерет, драма, военный, 1938) [DVDRip, Не треб ...
  • Донская повесть (Владимир Фетин, драма, 1964) [DVDRip, Не требуется]
  • Информация
    Посетители, находящиеся в группе Гости, не могут оставлять комментарии к данной публикации.