вход на сайт

Имя пользователя :
Пароль :

Восстановление пароля Регистрация
Рыжик (Илья Фрэз, приключения, семейный, 1960) [DVDRip, Не требуется]
Рейтинг:
(голосов: 1)



[img]{THEME}/images/logopost.png[/img]



Рыжик

Год выпуска: 1960
Страна: СССР
Производство: К/ст им. Горького
Жанр: приключения, семейный

Режиссёр: Илья Фрэз
В ролях: Александр Крынкин, Сергей Золотарев, Владимир Белокуров, Борис Буткеев, Виктория Духина, Георгий Георгиу, Сергей Гордеев, Петр Кирюткин, Софья Павлова, Владимир Ралетнев

Перевод: Не требуется
Субтитры: Отсутствуют

Описание:
Увлекательная история дружбы мальчика Саньки, прозванного рыжиком за медно-красный цвет волос, и артиста-клоуна Полфунта. Вместе они колесят по бескрайним просторам России в поисках счастья.


Дополнительно:
MediaInfo ▼Text
Общее
Полное имя :L:РыжикRyzik.(1960).DVDRip.avi
Формат :AVI
Размер :700 MiB
Продолжительность :01:24:12.960
Общий поток :1 163 Kbps
Программа кодирования :VirtualDubMod 1.5.4.1 (build 2178/release)
Библиотека кодирования :VirtualDubMod build 2178/release

Видео
Идентификатор :0
Формат :MPEG-4 Visual
Параметр BVOP формата :1
Параметр Qpel формата :No
Параметр GMC формата :0
Параметр Matrix формата :Default (H.263)
Идентификатор кодека :DX50
Продолжительность :1h 24mn 12s 960ms
Битрейт :1 028 Kbps
Ширина :640 pixels
Высота :480 pixels
Соотношение сторон :1.333
Частота кадров :25.000 fps
Глубина цвета :8 bits
Подвыборка цветности :4:2:0
Цветовое пространство :YUV
Тип развертки :Progressive
Бит/(Пиксели*Кадры) :0.134
Размер потока :619 MiB (88%)
Библиотека кодирования :DivX503b1328p

Аудио #1
Идентификатор :1
Формат :MPEG Audio
Идентификатор кодека :55
Продолжительность :01:24:12.792
Вид битрейта :Constant
Битрейт :128 Kbps
Канал(ы) :2 channels
Частота :48.0 KHz
Метод сжатия :Lossy
Размер потока :77.1 MiB (11%)



Тех. данные:
Качество:DVDRip
Продолжительность:01:24:10 час

Формат: AVI
Видео кодек: DivX
Аудио кодек: MPA1L3
Видео: 640 x 480 (4:3), 25.000 fps, 1 028 Kbps, 0.134 bit/pixel
Аудио : 48.0 KHz, , 2 channels (), 128 Kbps



74f6c8f825707236edbb4b463506d4b491912a42Рыжик (Илья Фрэз, приключения, семейный, 1960) [DVDRip, Не требуется] Рыжик (Илья Фрэз, приключения, семейный, 1960) [DVDRip, Не требуется] " />

Аплоадер: Админ, дата: 3-04-2013, 20:29, торрент скачан: 359 раз

Понравилась раздача? Посмотрите эти:
  • Дружок (Виктор Эйсымонт, семейный, 1958) [DVDRip, Не требуется]
  • Сережа (Георгий Данелия, Игорь Таланкин, драма, 1960) [DVDRip, Не требуется ...
  • Акваланги на дне (Евгений Шерстобитов, боевик, приключения, семейный, 1965) ...
  • Необыкновенное путешествие Мишки Стрекачева (Илья Фрэз, Эдуард Бочаров, сем ...
  • Где это видано, где это слыхано (Валентин Горлов, короткометражка, комедия, ...
  • Чиполлино (Тамара Лисициан, семейный, 1973) [DVDRip, Не требуется]
  • Совсем пропащий (Георгий Данелия, приключения, 1973) [DVDRip, Не требуется] ...
  • Приключения Толи Клюквина (Виктор Эйсымонт, комедия, семейный, 1964) [DVDRi ...
  • Пакет (Владимир Назаров, комедия, приключения, семейный, 1965) [DVDRip, Не ...
  • Первоклассница (Илья Фрэз, детский, 1948) [DVDRip, Не требуется]
  • Балтийское небо (2 части из 2) (Владимир Венгеров, драма, военный, история, ...
  • Егерь (Герман Ливанов, драма, экранизация, 1960) [DVDRip, Не требуется]
  • На графских развалинах (Владимир Скуйбин, приключения, семейный, 1957) [DVD ...
  • Левша (Сергей Овчаров, драма, комедия, 1986) [DVDRip, Не требуется]
  • Это мы не проходили (Илья Фрэз, драма, 1975) [DVDRip, Не требуется]
  • Чудак из пятого «Б» (Илья Фрэз, комедия, семейный, 1972) [DVDRip, Не требуе ...
  • Спортлото-82 (Леонид Гайдай, комедия, приключения, 1982) [DVDRip, Не требуе ...
  • Я вас любил... (Илья Фрэз, мелодрама, комедия, 1967) [DVDRip, Не требуется] ...
  • Приключения желтого чемоданчика (Илья Фрэз, комедия, семейный, 1970) [DVDRi ...
  • Приключения жёлтого чемоданчика (Илья Фрэз, Комедия, Семейный, 1970) [DVDRi ...
  • Дьявольское око / Djдvulens цga (Ингмар Бергман, фэнтези, драма, комедия, 1 ...
  • Шумный день (Анатолий Эфрос, Георгий Натансон, мелодрама, комедия, 1960) [D ...
  • Максимка (Владимир Браун, приключения, 1953) [DVDRip, Не требуется]
  • Мичман Панин (Михаил Швейцер, приключения, военный, история, 1960) [DVDRip, ...
  • Карантин (Илья Фрэз, комедия, 1983) [DVDRip, Не требуется]
  • Информация
    Посетители, находящиеся в группе Гости, не могут оставлять комментарии к данной публикации.