вход на сайт

Имя пользователя :
Пароль :

Восстановление пароля Регистрация
Украденный поезд (Владимир Янчев, драма, 1971) [DVDRip, Профессиональный (полное дублирование)]
Рейтинг:
(голосов: 1)



[img]{THEME}/images/logopost.png[/img]



Украденный поезд

Год выпуска: 1971
Страна: Болгария, Россия
Производство: Киностудия БОЯНА, Студия Горького
Жанр: драма

Режиссёр: Владимир Янчев
В ролях: Стефан Илиев, Георги Калоянчев, Всеволод Санаев, Уно Лойт, Альфред Р*censored*е, Борис Арабов, Борис Токарев, Добринка Станкова, Димитар Буйнозов, Доротея Тончева

Перевод: Профессиональный (полное дублирование)
Субтитры: Отсутствуют

Описание:
Вторая мировая война. Незадолго до Победы нацисты и их пособники пытались вывезти из Болгарии архивы, которые в будущем могли помочь расследовать дела о военных преступлениях. Совместными усилиями болгарских партизан и советских воинов архивы были спасены.


Дополнительно:
MediaInfo ▼Text
Общее
Полное имя :D:Украденный поездUkradennyy poezd.avi
Формат :AVI
Размер :844 MiB
Продолжительность :01:14:24.560
Общий поток :1 587 Kbps
Программа кодирования :VirtualDubModRus 1.5.10.2 (build 2540/release)
Библиотека кодирования :VirtualDubMod build 2540/release

Видео
Идентификатор :0
Формат :MPEG-4 Visual
Профиль формата :Advanced [email protected]
Параметр BVOP формата :3
Параметр Qpel формата :No
Параметр GMC формата :0
Параметр Matrix формата :Default (H.263)
Идентификатор кодека :XVID
Продолжительность :1h 14mn 24s 560ms
Битрейт :1 497 Kbps
Ширина :720 pixels
Высота :488 pixels
Соотношение сторон :1.475
Частота кадров :25.000 fps
Глубина цвета :8 bits
Подвыборка цветности :4:2:0
Цветовое пространство :YUV
Тип развертки :Progressive
Бит/(Пиксели*Кадры) :0.170
Размер потока :797 MiB (94%)
Библиотека кодирования :XviD0050

Аудио #1
Идентификатор :1
Формат :MPEG Audio
Идентификатор кодека :55
Продолжительность :01:14:24.528
Вид битрейта :Constant
Битрейт :80.0 Kbps
Канал(ы) :2 channels
Частота :24.0 KHz
Метод сжатия :Lossy
Размер потока :42.6 MiB (5%)



Тех. данные:
Качество:DVDRip
Продолжительность:01:14:20 час

Формат: AVI
Видео кодек:
6f37905820d9d9e137fc45678b514be3a303f810Украденный поезд (Владимир Янчев, драма, 1971) [DVDRip, Профессиональный (полное дублирование)] Украденный поезд (Владимир Янчев, драма, 1971) [DVDRip, Профессиональный (полное дублирование)] " />

Аплоадер: Админ, дата: 3-04-2013, 20:10, торрент скачан: 359 раз

Понравилась раздача? Посмотрите эти:
  • Воры в законе (Юрий Кара, триллер, криминал, 1988) [DVDRip, Профессиональны ...
  • Айрик (Генрих Малян, драма, семейный, 1972) [DVDRip, Профессиональный (пол ...
  • Кукарача (Кети Долидзе, Сико Долидзе, драма, 1982) [DVDRip, Профессиональны ...
  • Достояние республики (2 части из 2) (Владимир Бычков, Студия Горького, 1971 ...
  • Дневной поезд (Инесса Селезнева, драма, 1976) [DVDRip, Не требуется]
  • Всадник без головы (Владимир Вайншток, мелодрама, приключения, вестерн, 197 ...
  • Проверка на дорогах (Алексей Герман, драма, военный, 1971) [DVDRip, Не треб ...
  • Вся королевская рать (3 части из 3) (Наум Ардашников, Александр Гуткович, д ...
  • Диверсанты / The Demolition Squad (Хайрудин Крвавац, военный, 1967) [DVDRip ...
  • Назови пароль! / U gori raste zelen bor (Антун Врдоляк, драма, военный, 197 ...
  • Капитанская дочка (Владимир Каплуновский, драма, 1958) [DVDRip, Не требуетс ...
  • Черная гора (Александр Згуриди, драма, семейный, 1972) [DVDRip, Профессиона ...
  • Пропавшая грамота (Борис Ивченко, фэнтези, комедия, 1972) [DVDRip, Професси ...
  • Ты и я (Лариса Шепитько, драма, 1971) [DVDRip, Не требуется]
  • Шельменко-денщик (Андрей Тутышкин, мюзикл, комедия, 1971) [DVDRip, Не требу ...
  • Русалочка (Владимир Бычков, мюзикл, фэнтези, мелодрама, семейный, 1976) [DV ...
  • Мальчишки с улицы Пал / A pal-utcai fiuk (Золтан Фабри, драма, 1968) [DVDRi ...
  • Огни рампы / Limelight (Чарльз Чаплин, драма, мелодрама, комедия, музыка, 1 ...
  • Братья по крови / Blutsbruder (Вернер В. Валльрот, драма, вестерн, 1975) [D ...
  • Кутузов (Владимир Петров, драма, 1943) [DVDRip, Не требуется]
  • Информация
    Посетители, находящиеся в группе Гости, не могут оставлять комментарии к данной публикации.