вход на сайт

Имя пользователя :
Пароль :

Восстановление пароля Регистрация
Совсем пропащий (Георгий Данелия, приключения, 1973) [DVDRip, Не требуется]
Рейтинг:
(голосов: 1)



[img]{THEME}/images/logopost.png[/img]



Совсем пропащий

Год выпуска: 1973
Страна: СССР
Производство: Мосфильм
Жанр: приключения

Режиссёр: Георгий Данелия
В ролях: Владимир Басов, Феликс Имокуэде, Владимир Ивашов, Вахтанг Кикабидзе, Евгений Леонов, Роман Мадянов, Ирина Скобцева, Леонид Платонов, Екатерина Верулашвили, Наталья Сайко

Перевод: Не требуется
Субтитры: Отсутствуют

Описание:
Увлекательная история дружбы мальчика-сорванца и беглого раба. Приятели отправляются в путешествие по диким просторам Миссисипи и переживают в пути столько невероятных приключений, что их хватило бы на несколько историй!


Дополнительно:
MediaInfo ▼Text
Общее
Полное имя :L:Совсем пропащийСовсем пропащий.avi
Формат :AVI
Размер :1.45 GiB
Продолжительность :01:32:52.320
Общий поток :2 240 Kbps
Программа кодирования :VirtualDubMod 1.5.10.2 (build 2542/release)
Библиотека кодирования :VirtualDubMod build 2542/release

Видео
Идентификатор :0
Формат :MPEG-4 Visual
Профиль формата :Advanced [email protected]
Параметр BVOP формата :2
Параметр Qpel формата :No
Параметр GMC формата :0
Параметр Matrix формата :Custom
Идентификатор кодека :XVID
Продолжительность :1h 32mn 52s 320ms
Битрейт :1 783 Kbps
Ширина :720 pixels
Высота :304 pixels
Соотношение сторон :2.368
Частота кадров :25.000 fps
Глубина цвета :8 bits
Подвыборка цветности :4:2:0
Цветовое пространство :YUV
Тип развертки :Progressive
Бит/(Пиксели*Кадры) :0.326
Размер потока :1.16 GiB (80%)
Библиотека кодирования :XviD0050

Аудио #1
Идентификатор :1
Формат :AC-3
Формат/Информация :Audio Coding 3
Идентификатор кодека :2000
Продолжительность :01:32:52.142
Вид битрейта :Constant
Битрейт :448 Kbps
Канал(ы) :6 channels
Расположение каналов :Front: L C R, Side: L R, LFE
Частота :48.0 KHz
Битовая глубина :16 bits
Метод сжатия :Lossy
Размер потока :298 MiB (20%)



Тех. данные:
Качество:&nb
783be150d2f10fe7f7e6aa1c37fd50f57e792193Совсем пропащий (Георгий Данелия, приключения, 1973) [DVDRip, Не требуется] Совсем пропащий (Георгий Данелия, приключения, 1973) [DVDRip, Не требуется] " />

Аплоадер: Админ, дата: 2-04-2013, 21:37, торрент скачан: 359 раз

Понравилась раздача? Посмотрите эти:
  • Сережа (Георгий Данелия, Игорь Таланкин, драма, 1960) [DVDRip, Не требуется ...
  • Божья тварь (Галина Данелия-Юркова, комедия, 1991) [DVDRip, Не требуется]
  • Открытая книга (Владимир Фетин, драма, биография, 1973) [DVDRip, Не требуе ...
  • Чиполлино (Тамара Лисициан, семейный, 1973) [DVDRip, Не требуется]
  • Рыжик (Илья Фрэз, приключения, семейный, 1960) [DVDRip, Не требуется]
  • Плохой хороший человек (Иосиф Хейфиц, драма, история, 1973) [DVDRip, Не тре ...
  • Афоня (Георгий Данелия, драма, мелодрама, комедия, 1975) [DVDRip, Не требуе ...
  • Осенний марафон (Георгий Данелия, драма, мелодрама, комедия, 1979) [DVDRip, ...
  • Не горюй! (Георгий Данелия, драма, 1968) [DVDRip, Профессиональный (полное ...
  • На графских развалинах (Владимир Скуйбин, приключения, семейный, 1957) [DVD ...
  • Паспорт (Георгий Данелия, комедия, 1990) [DVDRip, Не требуется]
  • Хареба и Гоги (Георгий Шенгелая, драма, приключения, 1987) [DVDRip, Не треб ...
  • Слезы капали (Георгий Данелия, драма, 1982) [DVDRip, Не требуется]
  • Тридцать три (Георгий Данелия, комедия, 1965) [DVDRip, Не требуется]
  • Путь к причалу (Георгий Данелия, драма, 1963) [DVDRip, Не требуется]
  • Умные вещи (2 части из 2) (Анатолий Граник, детский, семейный, 1973) [DVDRi ...
  • Орел и решка (Георгий Данелия, Комедия, 1995) [DVDRip, Оригинал]
  • Вера, надежда, любовь (Владимир Грамматиков, приключения, 1984) [DVDRip, Не ...
  • Мексиканец (Владимир Каплуновский, драма, 1955) [DVDRip, Не требуется]
  • За облаками – небо (Юрий Егоров, драма, 1973) [DVDRip, Не требуется]
  • Информация
    Посетители, находящиеся в группе Гости, не могут оставлять комментарии к данной публикации.