вход на сайт

Имя пользователя :
Пароль :

Восстановление пароля Регистрация
Таинственная находка (Борис Бунеев, детский, приключения, 1954) [DVDRip, Не требуется]
Рейтинг:
(голосов: 1)



[img]{THEME}/images/logopost.png[/img]



Таинственная находка

Год выпуска: 1954
Страна: СССР
Производство: Студия Горького
Жанр: детский, приключения

Режиссёр: Борис Бунеев
В ролях: Алексей Покровский, Екатерина Савинова, Андрей Петров, Александр Суснин, Алексей Грибов, Михаил Глузский, Геннадий Юдин, Алексей Алексеев, Евгений Тетерин, Николай Граббе

Перевод: Не требуется
Субтитры: Отсутствуют

Описание:
Трое ребят из заполярного поселка находят в пещере старинное ружье. Стараясь выяснить происхождение находки, ребята узнают много интересного об истории края…


Дополнительно:
MediaInfo ▼Text
Общее
Полное имя :L:Таинственная находкаTainstvennaya.nahodka.1954.avi
Формат :AVI
Размер :1.37 GiB
Продолжительность :01:11:52.440
Общий поток :2 730 Kbps
Программа кодирования :VirtualDubMod 1.5.10.3 | www.virtualdub-fr.org || (build 2550/release)
Библиотека кодирования :VirtualDubMod build 2550/release

Видео
Идентификатор :0
Формат :MPEG-4 Visual
Профиль формата :Advanced [email protected]
Параметр BVOP формата :2
Параметр Qpel формата :Yes
Параметр GMC формата :0
Параметр Matrix формата :Default (H.263)
Идентификатор кодека :XVID
Продолжительность :1h 11mn 52s 440ms
Битрейт :2 336 Kbps
Ширина :720 pixels
Высота :544 pixels
Соотношение сторон :1.324
Частота кадров :25.000 fps
Глубина цвета :8 bits
Подвыборка цветности :4:2:0
Цветовое пространство :YUV
Тип развертки :Progressive
Бит/(Пиксели*Кадры) :0.239
Размер потока :1.17 GiB (86%)
Библиотека кодирования :XviD0050

Аудио #1
Идентификатор :1
Формат :AC-3
Формат/Информация :Audio Coding 3
Идентификатор кодека :2000
Продолжительность :01:11:52.224
Вид битрейта :Constant
Битрейт :384 Kbps
Канал(ы) :2 channels
Расположение каналов :Front: L R
Частота :48.0 KHz
Битовая глубина :16 bits
Метод сжатия :Lossy
Размер потока :197 MiB (14%)



Тех. данные:
Качество:
3f24be976d99e0a6be0340b0f66a38bf82f1e288Таинственная находка (Борис Бунеев, детский, приключения, 1954) [DVDRip, Не требуется] Таинственная находка (Борис Бунеев, детский, приключения, 1954) [DVDRip, Не требуется] " />

Аплоадер: Админ, дата: 2-04-2013, 21:14, торрент скачан: 359 раз

Понравилась раздача? Посмотрите эти:
  • Золотые яблоки (Фёдор Филиппов, семейный, 1954) [DVDRip, Не требуется]
  • Борец и клоун (Борис Барнет, Константин Юдин, драма, спорт, 1957) [DVDRip, ...
  • Аленка (Борис Барнет, комедия, 1961) [DVDRip, Не требуется]
  • Тайна горного подземелья (Лев Мирский, детский, приключения, 1975) [DVDRip, ...
  • Пакет (Владимир Назаров, комедия, приключения, семейный, 1965) [DVDRip, Не ...
  • Деревня Утка (Борис Бунеев, семейный, 1976) [DVDRip, Не требуется]
  • Иван да Марья (Борис Рыцарев, фэнтези, мелодрама, комедия, семейный, музыка ...
  • Зигзаг удачи (Эльдар Рязанов, комедия, 1968) [DVDRip, Не требуется]
  • Завтрак на траве (Николай Александрович, детский, комедия, 1979) [DVDRip, Н ...
  • Опекун (Эдгар Ходжикян, Альберт С. Мкртчян, комедия, 1970) [DVDRip, Не треб ...
  • Князь Игорь (Роман Тихомиров, мюзикл, приключения, 1969) [DVDRip, Не требуе ...
  • Мы с вами где-то встречались (Николай Досталь, Андрей Тутышкин, комедия, 19 ...
  • Фантазеры (Исаак Магитон, И. Сафарова, детский, 1965) [DVDRip, Не требуется ...
  • Шторм на суше (Эдуард Бочаров, детский, 1975) [TVRip, Не требуется]
  • Мульт-Салют. 11 часть из 30: Царевна-лягушка/Конек-Горбунок (Михаил Цеханов ...
  • Печники (Виктор Храмов, драма, 1982) [DVDRip, Не требуется]
  • Подарок чёрного колдуна (Борис Рыцарев, фэнтези, приключения, семейный, 197 ...
  • Сотрудник ЧК (Борис Волчек, боевик, история, 1963) [DVDRip, Не требуется]
  • Славный малый (Борис Барнет, военный, 1943) [DVDRip, Не требуется]
  • След кота (Уильям А. Уэллмен, драма, вестерн, 1954) [DVDRip, Любительский ( ...
  • Приключения маленького папы (Дмитрий Крупко, детский, комедия, 1979) [DVDRi ...
  • Полустанок (Борис Барнет, мелодрама, комедия, 1963) [DVDRip, Не требуется]
  • Лиловая равнина / The Purple Plain (Роберт Пэрриш, боевик, драма, приключен ...
  • Робинзон Крузо / Robinson Crusoe (Луис Бунюэль, драма, приключения, 1954) [ ...
  • Кутузов (Владимир Петров, драма, 1943) [DVDRip, Не требуется]
  • Информация
    Посетители, находящиеся в группе Гости, не могут оставлять комментарии к данной публикации.