вход на сайт

Имя пользователя :
Пароль :

Восстановление пароля Регистрация
Семьдесят два градуса ниже нуля (Сергей Данилин, Евгений Татарский, боевик, драма, приключения, 1976) [DVDRip, Не требуется]
Рейтинг:
(голосов: 1)



[img]{THEME}/images/logopost.png[/img]



Семьдесят два градуса ниже нуля

Год выпуска: 1976
Страна: СССР
Производство: Ленфильм
Жанр: боевик, драма, приключения

Режиссёр: Сергей Данилин, Евгений Татарский
В ролях: Николай Крючков, Валерий Козинец, Олег Корчиков, Юрий Демич, Михаил Кононов, Олег Янковский, Сергей Иванов, Александр Абдулов, Михаил Матвеев, Анатолий Соловьев

Перевод: Не требуется
Субтитры: Отсутствуют

Описание:
Уникальная станция «Восток», расположенная на геомагнитном полюсе Земли, оказалась под угрозой закрытия из-за недостатка топлива. Спасти положение вызывается отряд добровольцев со станции «Мирный».

Доставив санно-гусеничный поезд с топливом зимовщикам станции «Восток», отряд Гаврилова, несмотря на неумолимо надвигающуюся долгую полярную ночь, отправляется назад, в Мирный…


Дополнительно:
MediaInfo ▼Text
Общее
Полное имя :L:72 градуса ниже нуля72 gradusa nizhe nulja.avi
Формат :AVI
Размер :1.07 GiB
Продолжительность :01:17:00.000
Общий поток :1 997 Kbps
Программа кодирования :VirtualDubMod 1.5.10.3 (build 2550/release)
Библиотека кодирования :VirtualDubMod build 2550/release

Видео
Идентификатор :0
Формат :MPEG-4 Visual
Параметр BVOP формата :1
Параметр Qpel формата :No
Параметр GMC формата :0
Параметр Matrix формата :Default (MPEG)
Идентификатор кодека :DX50
Продолжительность :1h 17mn 0s 0ms
Битрейт :1 860 Kbps
Ширина :704 pixels
Высота :352 pixels
Соотношение сторон :2.000
Частота кадров :25.000 fps
Глубина цвета :8 bits
Подвыборка цветности :4:2:0
Цветовое пространство :YUV
Тип развертки :Progressive
Бит/(Пиксели*Кадры) :0.300
Размер потока :1.00 GiB (93%)
Библиотека кодирования :DivX503b2816p

Аудио #1
Идентификатор :1
Формат :MPEG Audio
Идентификатор кодека :55
Продолжительность :01:16:59.856
Вид битрейта :Constant
Битрейт :128 Kbps
Канал(ы) :2 channels
Частота :48.0 KHz
Метод сжатия :Lossy
Размер потока :70.5 MiB (6%)



Тех. данные:
Качество:DVDRip
Продолжительность:01:17:00 час

Формат: AVI
Видео ко
846c27298bcec9c48df47e00e07a844e6df99a01Семьдесят два градуса ниже нуля (Сергей Данилин, Евгений Татарский, боевик, драма, приключения, 1976) [DVDRip, Не требуется] Семьдесят два градуса ниже нуля (Сергей Данилин, Евгений Татарский, боевик, драма, приключения, 1976) [DVDRip, Не требуется] " />

Аплоадер: Админ, дата: 2-04-2013, 21:06, торрент скачан: 359 раз

Понравилась раздача? Посмотрите эти:
  • Подранки (Николай Губенко, драма, 1976) [DVDRip, Не требуется]
  • Акваланги на дне (Евгений Шерстобитов, боевик, приключения, семейный, 1965) ...
  • Неоконченная пьеса для механического пианино (Никита Михалков, драма, 1976) ...
  • Ко мне, Мухтар! (Семен Туманов, В. Тиунова, драма, 1964) [DVDRip, Не требуе ...
  • Инспектор ГАИ (Эльдор Уразбаев, драма, 1982) [DVDRip, Не требуется]
  • Дневной поезд (Инесса Селезнева, драма, 1976) [DVDRip, Не требуется]
  • Человек идёт за солнцем (Михаил Калик, драма, 1961) [DVDRip, Не требуется]
  • Тимур и его команда (2 части из 2) (Александр Бланк, Сергей Линков, приключ ...
  • Тачанка с Юга (Евгений Шерстобитов, приключения, 1977) [DVDRip, Не требуетс ...
  • Таинственная находка (Борис Бунеев, детский, приключения, 1954) [DVDRip, Не ...
  • Мама (Элизабета Бостан, мюзикл, фэнтези, семейный, 1976) [DVDRip, Не требуе ...
  • Левша (Сергей Овчаров, драма, комедия, 1986) [DVDRip, Не требуется]
  • Капитанская дочка (Владимир Каплуновский, драма, 1958) [DVDRip, Не требуетс ...
  • Царевич Проша (Надежда Кошеверова, фэнтези, семейный, 1947) [DVDRip, Не тре ...
  • Небывальщина (Сергей Овчаров, комедия, 1983) [DVDRip, Не требуется]
  • Степь (2 части из 2) (Сергей Бондарчук, драма, история, 1977) [DVDRip, Не т ...
  • Смелые люди (Константин Юдин, боевик, драма, военный, 1950) [DVDRip, Не тре ...
  • Самый красивый конь (Степан Пучинян, мелодрама, 1976) [DVDRip, Не требуется ...
  • Служили два товарища (Евгений Карелов, драма, комедия, военный, 1968) [DVDR ...
  • У меня есть лев (2 части из 2) (Константин Бромберг, драма, комедия, приклю ...
  • Путь корабля (Юрий Тарич, драма, приключения, 1935) [DVDRip, Не требуется]
  • Судьба человека (Сергей Бондарчук, драма, военный, биография, 1959) [DVDRip ...
  • Садко (Александр Птушко, фэнтези, приключения, 1952) [DVDRip, Не требуется] ...
  • 72 градуса ниже нуля (Сергей Данилин, Евгений Татарский, драма, приключения ...
  • Лялька-Руслан и его друг Санька (Евгений Татарский, приключения) [DVDRip, Н ...
  • Информация
    Посетители, находящиеся в группе Гости, не могут оставлять комментарии к данной публикации.