вход на сайт

Имя пользователя :
Пароль :

Восстановление пароля Регистрация
Старшина (Николай Кошелев, драма, 1979) [DVDRip, Не требуется]
Рейтинг:
(голосов: 1)



[img]{THEME}/images/logopost.png[/img]



Старшина

Год выпуска: 1979
Страна: СССР
Производство: Ленфильм
Жанр: драма

Режиссёр: Николай Кошелев
В ролях: Владимир Гостюхин, Наталья Сайко, Иван Бортник, Анатолий Васильев, Александр Жданов, Андрей Данилов, Рамаз Абушадзе, Анатолий Горин, Павел Кашлаков, Николай Комаров

Перевод: Не требуется
Субтитры: Отсутствуют

Описание:
После госпиталя старшина Кацуба, распрощавшийся с фронтовой службой, едет в провинциальный городок обучать курсантов военному делу. Но отношения с 17-летними ребятами не складываются: они считают своего наставника несправедливым и слишком придирчивым…


Дополнительно:
MediaInfo ▼Text
Общее
Полное имя :K:СтаршинаStarshina.avi
Формат :AVI
Размер :1.56 GiB
Продолжительность :01:23:12.000
Общий поток :2 688 Kbps
Программа кодирования :VirtualDubMod 1.5.4.1 (build 2178/release)
Библиотека кодирования :VirtualDubMod build 2178/release

Видео
Идентификатор :0
Формат :MPEG-4 Visual
Профиль формата :Advanced [email protected]
Параметр BVOP формата :No
Параметр Qpel формата :No
Параметр GMC формата :0
Параметр Matrix формата :Custom
Идентификатор кодека :XVID
Продолжительность :1h 23mn 12s 0ms
Битрейт :2 425 Kbps
Ширина :704 pixels
Высота :368 pixels
Соотношение сторон :1.913
Частота кадров :25.000 fps
Глубина цвета :8 bits
Подвыборка цветности :4:2:0
Цветовое пространство :YUV
Тип развертки :Progressive
Бит/(Пиксели*Кадры) :0.374
Размер потока :1.41 GiB (90%)
Библиотека кодирования :XviD0050

Аудио #1
Идентификатор :1
Формат :AC-3
Формат/Информация :Audio Coding 3
Идентификатор кодека :2000
Продолжительность :01:23:12.000
Вид битрейта :Constant
Битрейт :256 Kbps
Канал(ы) :2 channels
Расположение каналов :Front: L R
Частота :48.0 KHz
Битовая глубина :16 bits
Метод сжатия :Lossy
Размер потока :152 MiB (10%)



Тех. данные:
Качество:DVDRip
Про
85848d5467522d0c17710e53e27a8d1732b3ceebСтаршина (Николай Кошелев, драма, 1979) [DVDRip, Не требуется] Старшина (Николай Кошелев, драма, 1979) [DVDRip, Не требуется] " />

Аплоадер: Админ, дата: 2-04-2013, 21:03, торрент скачан: 359 раз

Понравилась раздача? Посмотрите эти:
  • Подранки (Николай Губенко, драма, 1976) [DVDRip, Не требуется]
  • Журавушка (Николай Москаленко, драма, мелодрама, 1968) [DVDRip, Не требуетс ...
  • Дни лётные (Николай Литус, Леонид Ризин, драма, 1965) [DVDRip, Не требуется ...
  • Путевка в Жизнь (Николай Экк, драма, 1931) [DVDRip, Не требуется]
  • Завтрак на траве (Николай Александрович, детский, комедия, 1979) [DVDRip, Н ...
  • Ой, вы, гуси... (Лидия Боброва, Драма, 1991) [DVDRip, Не требуется]
  • Моя любовь (Владимир Корш-Саблин, мюзикл, мелодрама, комедия, 1940) [DVDRip ...
  • Левша (Сергей Овчаров, драма, комедия, 1986) [DVDRip, Не требуется]
  • Капитанская дочка (Владимир Каплуновский, драма, 1958) [DVDRip, Не требуетс ...
  • Мы с вами где-то встречались (Николай Досталь, Андрей Тутышкин, комедия, 19 ...
  • Черная чайка (Григорий Колтунов, приключения, 1962) [DVDRip, Не требуется]
  • Солёный пёс (Николай Кошелев, драма, комедия, 1973) [DVDRip, Не требуется]
  • Дядя Ваня (Андрей Кончаловский, драма, 1971) [DVDRip, Не требуется]
  • Небывальщина (Сергей Овчаров, комедия, 1983) [DVDRip, Не требуется]
  • Бабушки надвое сказали (Валерий Харченко, Юрий Клебанов, комедия, 1979) [DV ...
  • Славный малый (Борис Барнет, военный, 1943) [DVDRip, Не требуется]
  • Соловей (Надежда Кошеверова, мюзикл, семейный, 1979) [DVDRip, Не требуется] ...
  • Приключения маленького папы (Дмитрий Крупко, детский, комедия, 1979) [DVDRi ...
  • Кутузов (Владимир Петров, драма, 1943) [DVDRip, Не требуется]
  • Добряки (Карен Шахназаров, комедия, 1979) [DVDRip, Не требуется]
  • Информация
    Посетители, находящиеся в группе Гости, не могут оставлять комментарии к данной публикации.