вход на сайт

Имя пользователя :
Пароль :

Восстановление пароля Регистрация
Тайна горного подземелья (Лев Мирский, детский, приключения, 1975) [DVDRip, Не требуется]
Рейтинг:
(голосов: 1)



[img]{THEME}/images/logopost.png[/img]



Тайна горного подземелья

Год выпуска: 1975
Страна: СССР
Производство: Студия Горького
Жанр: детский, приключения

Режиссёр: Лев Мирский
В ролях: Наталья Фатеева, Михаил Волков, Павел Хлёсткин, Александр Донец, Владимир Рудько, Инна Палехова

Перевод: Не требуется
Субтитры: Отсутствуют

Описание:
Четверо школьников попадают в пещеру, бывшую во время Великой Отечественной войны фашистким складом оружия и документов. В результате подземных толчков юные герои неожиданно оказываются замурованными. В поисках выхода ребята проведут несколько дней…


Дополнительно:
MediaInfo ▼Text
Общее
Полное имя :L:Тайна горного подземельяТайна горного подземелья.avi
Формат :AVI
Размер :741 MiB
Продолжительность :01:14:00.648
Общий поток :1 401 Kbps
Программа кодирования :VirtualDubMod 1.5.10.2 (build 2540/release)
Библиотека кодирования :VirtualDubMod build 2540/release

Видео
Идентификатор :0
Формат :MPEG-4 Visual
Профиль формата :Advanced [email protected]
Параметр BVOP формата :1
Параметр Qpel формата :No
Параметр GMC формата :0
Параметр Matrix формата :Custom
Идентификатор кодека :XVID
Продолжительность :1h 14mn 0s 640ms
Битрейт :1 263 Kbps
Ширина :672 pixels
Высота :448 pixels
Соотношение сторон :1.500
Частота кадров :25.000 fps
Глубина цвета :8 bits
Подвыборка цветности :4:2:0
Цветовое пространство :YUV
Тип развертки :Progressive
Бит/(Пиксели*Кадры) :0.168
Размер потока :669 MiB (90%)
Библиотека кодирования :XviD0050

Аудио #1
Идентификатор :1
Формат :MPEG Audio
Идентификатор кодека :55
Продолжительность :01:14:00.648
Вид битрейта :Constant
Битрейт :128 Kbps
Канал(ы) :2 channels
Частота :48.0 KHz
Метод сжатия :Lossy
Размер потока :67.8 MiB (9%)



Тех. данные:
Качество:DVDRip
Продолжительность:01:14:08 час

Формат: AVI
Видео кодек: XviD
Аудио кодек: MPA1L3
Видео: 672 x 448 (3:2), 25.000 fps, 1 263 Kbps, 0.168 bit/pixel
Аудио : 48.0 KHz, , 2 channels (), 12
70f5c883a7b0ffdd82477c207836134935ad7078Тайна горного подземелья (Лев Мирский, детский, приключения, 1975) [DVDRip, Не требуется] Тайна горного подземелья (Лев Мирский, детский, приключения, 1975) [DVDRip, Не требуется] " />

Аплоадер: Админ, дата: 1-04-2013, 22:05, торрент скачан: 359 раз

Понравилась раздача? Посмотрите эти:
  • Бой под Соколом (Александр Разумный, военный, 1942) [DVDRip, Не требуется]
  • Акваланги на дне (Евгений Шерстобитов, боевик, приключения, семейный, 1965) ...
  • Каштанка (Роман Балаян, приключения, 1975) [DVDRip, Не требуется]
  • Два дня чудес (Лев Мирский, комедия, 1970) [DVDRip, Не требуется]
  • Тайна железной двери (Михаил Юзовский, фантастика, приключения, семейный, 1 ...
  • Тайна горного озера (Александр Роу, Яков Кочарян, приключения, семейный, 19 ...
  • Таинственная находка (Борис Бунеев, детский, приключения, 1954) [DVDRip, Не ...
  • Первоклассница (Илья Фрэз, детский, 1948) [DVDRip, Не требуется]
  • Завтрак на траве (Николай Александрович, детский, комедия, 1979) [DVDRip, Н ...
  • Князь Игорь (Роман Тихомиров, мюзикл, приключения, 1969) [DVDRip, Не требуе ...
  • Капитанская дочка (Владимир Каплуновский, драма, 1958) [DVDRip, Не требуетс ...
  • Казаки-разбойники (Валентин Козачков, детский, приключения, 1979) [DVDRip, ...
  • Фантазеры (Исаак Магитон, И. Сафарова, детский, 1965) [DVDRip, Не требуется ...
  • Шторм на суше (Эдуард Бочаров, детский, 1975) [TVRip, Не требуется]
  • Мы с Вулканом (Валентин Перов, детский, семейный, 1973) [TVRip, Не требуетс ...
  • Спортлото-82 (Леонид Гайдай, комедия, приключения, 1982) [DVDRip, Не требуе ...
  • Приключения маленького папы (Дмитрий Крупко, детский, комедия, 1979) [DVDRi ...
  • Тайна горного подземелья (Лев Мирский, приключения,1975) [DVDRip, не требуе ...
  • Дом на дюнах (Дмитрий Салынский, приключения, 1984) [DVDRip, Не требуется]
  • Карьера Димы Горина (Фрунзе Довлатян, Лев Мирский, комедия, 1962) [DVDRip, ...
  • Информация
    Посетители, находящиеся в группе Гости, не могут оставлять комментарии к данной публикации.