вход на сайт

Имя пользователя :
Пароль :

Восстановление пароля Регистрация
Тайна железной двери (Михаил Юзовский, фантастика, приключения, семейный, 1970) [DVDRip, Не требуется]
Рейтинг:
(голосов: 1)



[img]{THEME}/images/logopost.png[/img]



Тайна железной двери

Год выпуска: 1970
Страна: СССР
Производство: Студия Горького
Жанр: фантастика, приключения, семейный

Режиссёр: Михаил Юзовский
В ролях: Алиса Фрейндлих, Олег Табаков, Савелий Крамаров, Юрий Успенский, Эвальдас Микалюнас, Андрей Харыбин, Мичислав Юзовский, Сергей Евсюнин, Валерий Фоменков, Алексей Горизонтов

Перевод: Не требуется
Субтитры: Отсутствуют

Описание:
Однажды четвероклассник Толя Рыжков нашел волшебные спички, исполняющие любое желание. И началась у Толи вольготная жизнь! Вместе с другом он оказался на волшебном острове. Но вскоре ребята поняли, что возвращаться им придется самостоятельно.


Дополнительно:
MediaInfo ▼Text
Общее
Полное имя :L:Тайна железной двериТайна железной двери.avi
Формат :AVI
Размер :679 MiB
Продолжительность :01:08:17.640
Общий поток :1 390 Kbps
Программа кодирования :VirtualDubModRus 1.5.10.2 (build 2542/release)
Библиотека кодирования :VirtualDubMod build 2542/release

Видео
Идентификатор :0
Формат :MPEG-4 Visual
Параметр BVOP формата :1
Параметр Qpel формата :No
Параметр GMC формата :0
Параметр Matrix формата :Default (H.263)
Идентификатор кодека :DX50
Продолжительность :1h 8mn 17s 640ms
Битрейт :1 252 Kbps
Ширина :640 pixels
Высота :480 pixels
Соотношение сторон :1.333
Частота кадров :25.000 fps
Глубина цвета :8 bits
Подвыборка цветности :4:2:0
Цветовое пространство :YUV
Тип развертки :Progressive
Бит/(Пиксели*Кадры) :0.163
Размер потока :611 MiB (90%)
Библиотека кодирования :DivX503b1307p

Аудио #1
Идентификатор :1
Формат :MPEG Audio
Идентификатор кодека :55
Продолжительность :01:08:17.640
Вид битрейта :Constant
Битрейт :128 Kbps
Канал(ы) :2 channels
Частота :48.0 KHz
Метод сжатия :Lossy
Размер потока :62.5 MiB (9%)



Тех. данные:
Качество:DVDRip
Продолжительность:01:08:10 час

Формат: AVI
Видео кодек: DivX
Аудио кодек: MPA1L3
Видео: 640 x 480 (4:3), 25.000 fps, 1 252 Kbps, 0.163 bit/pixel
Аудио : 48.0 KHz, , 2 channel
cc202692d1ffa8281343416567a1ad26c0baf238Тайна железной двери (Михаил Юзовский, фантастика, приключения, семейный, 1970) [DVDRip, Не требуется] Тайна железной двери (Михаил Юзовский, фантастика, приключения, семейный, 1970) [DVDRip, Не требуется] " />

Аплоадер: Админ, дата: 1-04-2013, 21:59, торрент скачан: 359 раз

Понравилась раздача? Посмотрите эти:
  • Судьба резидента (2 части из 2) (Вениамин Дорман, детектив, приключения, 19 ...
  • Начало (Глеб Панфилов, мелодрама, комедия, 1970) [DVDRip, Не требуется]
  • Зеленые цепочки (Григорий Аронов, приключения, 1970) [DVDRip, Не требуется] ...
  • Шанс (Александр Майоров, фантастика, фэнтези, мелодрама, комедия, приключен ...
  • Тайна горного подземелья (Лев Мирский, детский, приключения, 1975) [DVDRip, ...
  • Приключения Толи Клюквина (Виктор Эйсымонт, комедия, семейный, 1964) [DVDRi ...
  • Пакет (Владимир Назаров, комедия, приключения, семейный, 1965) [DVDRip, Не ...
  • Гиперболоид инженера Гарина (Александр Гинцбург, фантастика, 1965) [DVDRip, ...
  • Волшебная сила (Наум Бирман, мюзикл, комедия, семейный, 1970) [DVDRip, Не т ...
  • Анискин и Фантомас (2 части из 2) (Михаил Жаров, Владимир Рапопорт, комедия ...
  • На графских развалинах (Владимир Скуйбин, приключения, семейный, 1957) [DVD ...
  • Мама (Элизабета Бостан, мюзикл, фэнтези, семейный, 1976) [DVDRip, Не требуе ...
  • Карусель (Михаил Швейцер, комедия, 1970) [DVDRip, Не требуется]
  • Таинственный остров (Эдуард Пенцлин, фантастика, приключения, семейный, 194 ...
  • Там, на неведомых дорожках... (Реставрирован) (Михаил Юзовский, фэнтези, се ...
  • Приключения желтого чемоданчика (Илья Фрэз, комедия, семейный, 1970) [DVDRi ...
  • После дождичка, в четверг... (Михаил Юзовский, семейный, 1987) [DVDRip, Не ...
  • Тайна железной двери (Михаил Юзовский, Фантастика, Приключения, Семейный, 1 ...
  • Король манежа (Юрий Чулюкин, семейный, 1970) [DVDRip, Не требуется]
  • Драгоценный подарок (Александр Роу, семейный, 1956) [DVDRip, Не требуется]
  • Информация
    Посетители, находящиеся в группе Гости, не могут оставлять комментарии к данной публикации.