вход на сайт

Имя пользователя :
Пароль :

Восстановление пароля Регистрация
Тачанка с Юга (Евгений Шерстобитов, приключения, 1977) [DVDRip, Не требуется]
Рейтинг:
(голосов: 1)



[img]{THEME}/images/logopost.png[/img]



Тачанка с Юга

Год выпуска: 1977
Страна: СССР
Производство: Студия Довженко, Время
Жанр: приключения

Режиссёр: Евгений Шерстобитов
В ролях: Станислав Коренев, Александр Стригалев, Георгий Дворников, Виктор Степаненко, Дмитрий Миргородский, Артур Нищенкин, Юрий Критенко, Анатолий Юрченко, Валерий Панарин, Виктор Мирошниченко

Перевод: Не требуется
Субтитры: Отсутствуют

Описание:
События происходят в начале 20-х годов на юге Украины, где действуют хорошо вооруженные крупные вражеские банды. Основу сюжета составляет операция чекистов «Тачанка с юга», имеющая цель сорвать планы врага. Сотрудник ЧК Бардин и его верный помощник Шура проникают в расположение банды Аркадьева, хитростью захватывают его в плен, а подоспевшие части Красной Армии ликвидируют банду.


Дополнительно:
MediaInfo ▼Text
Общее
Полное имя :L:Тачанка с югаTachanka s yuga.avi
Формат :AVI
Размер :744 MiB
Продолжительность :01:20:44.520
Общий поток :1 288 Kbps
Программа кодирования :VirtualDubMod 1.5.10.2 (build 2540/release)
Библиотека кодирования :VirtualDubMod build 2540/release

Видео
Идентификатор :0
Формат :MPEG-4 Visual
Профиль формата :Advanced [email protected]
Параметр BVOP формата :2
Параметр Qpel формата :No
Параметр GMC формата :0
Параметр Matrix формата :Default (H.263)
Идентификатор кодека :XVID
Продолжительность :1h 20mn 44s 520ms
Битрейт :1 086 Kbps
Ширина :608 pixels
Высота :272 pixels
Соотношение сторон :2.235
Частота кадров :25.000 fps
Глубина цвета :8 bits
Подвыборка цветности :4:2:0
Цветовое пространство :YUV
Тип развертки :Progressive
Бит/(Пиксели*Кадры) :0.263
Размер потока :627 MiB (84%)
Библиотека кодирования :XviD0050

Аудио #1
Идентификатор :1
Формат :MPEG Audio
Идентификатор кодека :55
Продолжительность :01:20:44.520
Вид битрейта :Constant
Битрейт :192 Kbps
Канал(ы) :2 channels
Частота :48.0 KHz
Метод сжатия :Lossy
Размер потока :111 MiB (15%)



Тех. данные:
Качество:DVDRip
Продолжитель
b52a37f7aef57b1a738b88dc04382ce0268104a7Тачанка с Юга (Евгений Шерстобитов, приключения, 1977) [DVDRip, Не требуется] Тачанка с Юга (Евгений Шерстобитов, приключения, 1977) [DVDRip, Не требуется] " />

Аплоадер: Админ, дата: 1-04-2013, 21:52, торрент скачан: 359 раз

Понравилась раздача? Посмотрите эти:
  • Вас вызывает Таймыр (Алексей Коренев, комедия, 1970) [DVDRip, Не требуется] ...
  • Бой под Соколом (Александр Разумный, военный, 1942) [DVDRip, Не требуется]
  • Акваланги на дне (Евгений Шерстобитов, боевик, приключения, семейный, 1965) ...
  • Каштанка (Роман Балаян, приключения, 1975) [DVDRip, Не требуется]
  • Защитник Седов (Евгений Цымбал, драма, 1988) [DVDRip, Не требуется]
  • Князь Игорь (Роман Тихомиров, мюзикл, приключения, 1969) [DVDRip, Не требуе ...
  • Тачанка с юга (Евгений Шерстобитов, Приключения, 1977) [DVDRip, оригинал]
  • Судьба (2 части из 2) (Евгений Матвеев, драма, мелодрама, 1977) [DVDRip, Не ...
  • Печники (Виктор Храмов, драма, 1982) [DVDRip, Не требуется]
  • Четвертый перископ (Виктор Эйсымонт, приключения, 1942) [DVDRip, Не требует ...
  • Адъютант его превосходительства (5 частей из 5) (Евгений Ташков, мелодрама, ...
  • Степь (2 части из 2) (Сергей Бондарчук, драма, история, 1977) [DVDRip, Не т ...
  • Я вас любил... (Илья Фрэз, мелодрама, комедия, 1967) [DVDRip, Не требуется] ...
  • У меня есть лев (2 части из 2) (Константин Бромберг, драма, комедия, приклю ...
  • Путь корабля (Юрий Тарич, драма, приключения, 1935) [DVDRip, Не требуется]
  • Приехали на конкурс повара (Нерсес Оганесян, комедия, 1977) [DVDRip, Не тре ...
  • Приключения желтого чемоданчика (Илья Фрэз, комедия, семейный, 1970) [DVDRi ...
  • Солдатки (Валентин Козачков, драма, 1977) [DVDRip, Не требуется]
  • Золотая речка (Вениамин Дорман, приключения, 1977) [DVDRip, Не требуется]
  • Р.В.С. (Алексей Мороз, военный, 1977) [DVDRip, (2х)Оригинал (русский)]
  • Информация
    Посетители, находящиеся в группе Гости, не могут оставлять комментарии к данной публикации.