вход на сайт

Имя пользователя :
Пароль :

Восстановление пароля Регистрация
Тоска (Фрунзе Довлатян, драма, 1990) [DVDRip, Профессиональный (полное дублирование)]
Рейтинг:
(голосов: 1)



[img]{THEME}/images/logopost.png[/img]



Тоска

Год выпуска: 1990
Страна: СССР
Производство: Арменфильм
Жанр: драма

Режиссёр: Фрунзе Довлатян
В ролях: Рафаэль Атоян, Галя Новенц, Ашот Меликджанян, Х. Карташян, С. Петросян, Нерсес Оганесян, Аршак Ховханнисян, Левон Шарафян, Азат Гаспарян, А. Шахвердян

Перевод: Профессиональный (полное дублирование)
Субтитры: Отсутствуют

Описание:
В основе сюжета — трогательная и трагическая история крестьянина Аракела, которого однажды, в бессонную летнюю ночь, тоска по «родным пепелищам», по родному дому повела по ту сторону государственной границы — в Турцию… Возвращение завершилось трагической гибелью в застенках НКВД.


Дополнительно:
MediaInfo ▼Text
Общее
Полное имя :J:ТоскаToska.DVDRip.avi
Формат :AVI
Размер :1.37 GiB
Продолжительность :02:12:14.720
Общий поток :1 480 Kbps
Программа кодирования :VirtualDubModRus 1.5.10.2 (build 2542/release)
Библиотека кодирования :VirtualDubMod build 2542/release

Видео
Идентификатор :0
Формат :MPEG-4 Visual
Параметр BVOP формата :1
Параметр Qpel формата :No
Параметр GMC формата :0
Параметр Matrix формата :Default (H.263)
Идентификатор кодека :DX50
Продолжительность :2h 12mn 14s 720ms
Битрейт :1 343 Kbps
Ширина :640 pixels
Высота :480 pixels
Соотношение сторон :1.333
Частота кадров :25.000 fps
Глубина цвета :8 bits
Подвыборка цветности :4:2:0
Цветовое пространство :YUV
Тип развертки :Progressive
Бит/(Пиксели*Кадры) :0.175
Размер потока :1.24 GiB (91%)
Библиотека кодирования :DivX503b2676p

Аудио #1
Идентификатор :1
Формат :MPEG Audio
Идентификатор кодека :55
Продолжительность :02:12:14.712
Вид битрейта :Constant
Битрейт :128 Kbps
Канал(ы) :2 channels
Частота :48.0 KHz
Метод сжатия :Lossy
Размер потока :121 MiB (9%)



Тех. данные:
Качество:DVDRip
Продолжительность:02:12:10 час

Формат: AVI
Видео кодек: DivX
Аудио кодек: MPA1L3
Видео: 640 x 480 (4:3), 25.000 fps, 1 343 Kbps, 0.175 bit/pixel
Аудио : 48.0 KHz, , 2 channels (), 128 Kbps


cc813e573d13724c7480b28941a396bba9a293e6Тоска (Фрунзе Довлатян, драма, 1990) [DVDRip, Профессиональный (полное дублирование)] Тоска (Фрунзе Довлатян, драма, 1990) [DVDRip, Профессиональный (полное дублирование)] " />

Аплоадер: Админ, дата: 1-04-2013, 21:45, торрент скачан: 359 раз

Понравилась раздача? Посмотрите эти:
  • Геркус Мантас (2 части из 2) (Марионас Гедрис, драма, 1972) [SATRip, Профес ...
  • Братья Сарояны (Хорен Абрамян, Фрунзе Довлатян, Аркадий Айрапетян, драма, 1 ...
  • Айрик (Генрих Малян, драма, семейный, 1972) [DVDRip, Профессиональный (пол ...
  • О чем шумит река (Григорий Мелик-Авакян, драма, 1959) [DVDRip, Не требуется ...
  • Наапет (Генрих Малян, драма, 1977) [DVDRip, Профессиональный (полное дублир ...
  • Мы и наши горы (Генрих Малян, драма, комедия, 1969) [DVDRip, Профессиональн ...
  • Кукарача (Кети Долидзе, Сико Долидзе, драма, 1982) [DVDRip, Профессиональны ...
  • Всадник без головы (Владимир Вайншток, мелодрама, приключения, вестерн, 197 ...
  • Гикор (Сергей Исраелян, драма, семейный, 1982) [DVDRip, Профессиональный (п ...
  • Украденный поезд (Владимир Янчев, драма, 1971) [DVDRip, Профессиональный (п ...
  • Черная гора (Александр Згуриди, драма, семейный, 1972) [DVDRip, Профессиона ...
  • Пропавшая грамота (Борис Ивченко, фэнтези, комедия, 1972) [DVDRip, Професси ...
  • Степь (2 части из 2) (Сергей Бондарчук, драма, история, 1977) [DVDRip, Не т ...
  • Последний переход (Амангельды Тажбаев, боевик, 1981) [DVDRip, Профессиональ ...
  • Попугай, говорящий на идиш (Эфраим Севела, драма, комедия, приключения, вое ...
  • 01-99 (Амаси Мартиросян, короткометражка, комедия, 1959) [DVDRip, Не требуе ...
  • Хозяин и слуга (Дмитрий Кесаянц, короткометражка, комедия, 1963) [DVDRip, Н ...
  • Братья по крови / Blutsbruder (Вернер В. Валльрот, драма, вестерн, 1975) [D ...
  • Карьера Димы Горина (Фрунзе Довлатян, Лев Мирский, комедия, 1962) [DVDRip, ...
  • Битва трех королей / La batalla de los Tres Reyes (2 части из 2) (Сухейль Б ...
  • Информация
    Посетители, находящиеся в группе Гости, не могут оставлять комментарии к данной публикации.