вход на сайт

Имя пользователя :
Пароль :

Восстановление пароля Регистрация
Убийство на улице Данте (Михаил Ромм, драма, 1956) [DVDRip, Не требуется]
Рейтинг:
(голосов: 1)



[img]{THEME}/images/logopost.png[/img]



Убийство на улице Данте

Год выпуска: 1956
Страна: СССР
Производство: Мосфильм
Жанр: драма

Режиссёр: Михаил Ромм
В ролях: Евгения Козырева, Михаил Козаков, Николай Комиссаров, Максим Штраух, Ростислав Плятт, Владимир Муравьев, Георгий Вицин, Валентин Гафт, Иннокентий Смоктуновский, Николай Горлов

Перевод: Не требуется
Субтитры: Отсутствуют

Описание:
В годы войны французская актриса Мадлен Тибо, активная участница Сопротивления, случайно узнала, что ее сын завербован фашистами. Все ее попытки пробудить в сыне патриотические чувства безуспешны. По вине Шарля погибают многие его соотечественники и родные. В смертельной опасности оказывается и сама Мадлен…


Дополнительно:
MediaInfo ▼Text
Общее
Полное имя :J:Убийство на улице ДантеUbiystvo na ulitse Dante.DVDRip.avi
Формат :AVI
Размер :1.37 GiB
Продолжительность :01:38:16.080
Общий поток :1 991 Kbps
Программа кодирования :VirtualDubModRus 1.5.10.2 (build 2542/release)
Библиотека кодирования :VirtualDubMod build 2542/release

Видео
Идентификатор :0
Формат :MPEG-4 Visual
Параметр BVOP формата :1
Параметр Qpel формата :No
Параметр GMC формата :0
Параметр Matrix формата :Default (H.263)
Идентификатор кодека :DX50
Продолжительность :1h 38mn 16s 80ms
Битрейт :1 790 Kbps
Ширина :688 pixels
Высота :512 pixels
Соотношение сторон :1.344
Частота кадров :25.000 fps
Глубина цвета :8 bits
Подвыборка цветности :4:2:0
Цветовое пространство :YUV
Тип развертки :Progressive
Бит/(Пиксели*Кадры) :0.203
Размер потока :1.23 GiB (90%)
Библиотека кодирования :DivX503b2676p

Аудио #1
Идентификатор :1
Формат :AC-3
Формат/Информация :Audio Coding 3
Идентификатор кодека :2000
Продолжительность :01:38:16.064
Вид битрейта :Constant
Битрейт :192 Kbps
Канал(ы) :2 channels
Расположение каналов :Front: L R
Частота :48.0 KHz
Битовая глубина :16 bits
Метод сжатия :Lossy
Размер потока :135 MiB (10%)


&nb
5084bf28c0c0c2a89ed10ea34cd8bb89f31871b7Убийство на улице Данте (Михаил Ромм, драма, 1956) [DVDRip, Не требуется] Убийство на улице Данте (Михаил Ромм, драма, 1956) [DVDRip, Не требуется] " />

Аплоадер: Админ, дата: 1-04-2013, 21:28, торрент скачан: 359 раз

Понравилась раздача? Посмотрите эти:
  • На подмостках сцены (Константин Юдин, драма, комедия, 1956) [DVDRip, Не тре ...
  • Журавушка (Николай Москаленко, драма, мелодрама, 1968) [DVDRip, Не требуетс ...
  • В огне брода нет (Глеб Панфилов, драма, военный, 1968) [DVDRip, Не требуетс ...
  • Нейтральные воды (Владимир Беренштейн, драма, 1968) [DVDRip, Не требуется]
  • Выстрел (Наум Трахтенберг, драма, 1966) [DVDRip, Не требуется]
  • Человек идёт за солнцем (Михаил Калик, драма, 1961) [DVDRip, Не требуется]
  • Путевка в Жизнь (Николай Экк, драма, 1931) [DVDRip, Не требуется]
  • Прощай, шпана замоскворецкая... (Александр Панкратов, драма, мелодрама, 198 ...
  • Путь в "Сатурн" (Виллен Азаров, военный, 1967) [DVDRip, Не требуется]
  • Конец "Сатурна" (Виллен Азаров, Мосфильм, 1967) [DVDRip, Не требуется]
  • По главной улице с оркестром (Петр Тодоровский, мюзикл, мелодрама, комедия, ...
  • Гиперболоид инженера Гарина (Александр Гинцбург, фантастика, 1965) [DVDRip, ...
  • Чайка (Юлий Карасик, драма, 1972) [DVDRip, Не требуется]
  • Степь (2 части из 2) (Сергей Бондарчук, драма, история, 1977) [DVDRip, Не т ...
  • Хозяйка гостиницы (Михаил Названов, комедия, 1956) [DVDRip, Не требуется]
  • Донская повесть (Владимир Фетин, драма, 1964) [DVDRip, Не требуется]
  • Драгоценный подарок (Александр Роу, семейный, 1956) [DVDRip, Не требуется]
  • Здравствуйте, я ваша тетя! (Виктор Титов, комедия, 1974) [DVDRip, Не требуе ...
  • В добрый час! (Виктор Эйсымонт, драма, мелодрама, 1956) [DVDRip, Не требует ...
  • За облаками – небо (Юрий Егоров, драма, 1973) [DVDRip, Не требуется]
  • Информация
    Посетители, находящиеся в группе Гости, не могут оставлять комментарии к данной публикации.