вход на сайт

Имя пользователя :
Пароль :

Восстановление пароля Регистрация
Француз (Галина Данелия-Юркова, драма, комедия, 1988) [DVDRip, Не требуется]
Рейтинг:
(голосов: 1)



[img]{THEME}/images/logopost.png[/img]



Француз

Год выпуска: 1988
Страна: СССР
Производство: Студия Горького, Ладья
Жанр: драма, комедия

Режиссёр: Галина Данелия-Юркова
В ролях: Сергей Шакуров, Евгения Симонова, Леонид Ярмольник, Семен Фарада, Александр Бирюков, Юрий Звягинцев, Игорь Скляр, Борис Гитин, Александр Комлев, Евгений Крылов

Перевод: Не требуется
Субтитры: Отсутствуют

Описание:
О жизни бывшего военнопленного, вернувшегося домой. Дети уже почти выросли и не помнят отца, жена собралась замуж, а в доме поселился странный родственник. И только искренняя любовь к своим близким помогает найти взаимопонимание и снова обрести семью.


Дополнительно:
MediaInfo ▼Text
Общее
Полное имя :K:ФранцузФранцуз.1988.DVDRip.avi
Формат :AVI
Размер :1.34 GiB
Продолжительность :01:13:53.472
Общий поток :2 599 Kbps

Видео
Идентификатор :0
Формат :MPEG-4 Visual
Профиль формата :Advanced [email protected]
Параметр BVOP формата :1
Параметр Qpel формата :No
Параметр GMC формата :0
Параметр Matrix формата :Default (MPEG)
Идентификатор кодека :XVID
Продолжительность :1h 13mn 53s 440ms
Битрейт :2 143 Kbps
Ширина :720 pixels
Высота :480 pixels
Соотношение сторон :1.500
Частота кадров :25.000 fps
Глубина цвета :8 bits
Подвыборка цветности :4:2:0
Цветовое пространство :YUV
Тип развертки :Progressive
Бит/(Пиксели*Кадры) :0.248
Размер потока :1.11 GiB (82%)
Библиотека кодирования :XviD0050

Аудио #1
Идентификатор :1
Формат :AC-3
Формат/Информация :Audio Coding 3
Идентификатор кодека :2000
Продолжительность :01:13:53.472
Вид битрейта :Constant
Битрейт :448 Kbps
Канал(ы) :6 channels
Расположение каналов :Front: L C R, Side: L R, LFE
Частота :48.0 KHz
Битовая глубина :16 bits
Метод сжатия :Lossy
Размер потока :237 MiB (17%)



Тех. данные:
Качество:DVDRip
Продолжительность:01:13:52 час

Формат: AVI
Видео кодек: XviD
Аудио кодек: AC3
Видео:
9c877aa6f77f689759134298a6e3fb08934f61b7Француз (Галина Данелия-Юркова, драма, комедия, 1988) [DVDRip, Не требуется] Француз (Галина Данелия-Юркова, драма, комедия, 1988) [DVDRip, Не требуется] " />

Аплоадер: Админ, дата: 1-04-2013, 21:20, торрент скачан: 359 раз

Понравилась раздача? Посмотрите эти:
  • Сережа (Георгий Данелия, Игорь Таланкин, драма, 1960) [DVDRip, Не требуется ...
  • Божья тварь (Галина Данелия-Юркова, комедия, 1991) [DVDRip, Не требуется]
  • Абориген (Елена Николаева, драма, 1988) [DVDRip, Не требуется]
  • Защитник Седов (Евгений Цымбал, драма, 1988) [DVDRip, Не требуется]
  • Дама с собачкой (Иосиф Хейфиц, драма, мелодрама, 1959) [DVDRip, Не требуетс ...
  • Вы чье, старичье? (Иосиф Хейфиц, драма, 1988) [DVDRip, Не требуется]
  • Совсем пропащий (Георгий Данелия, приключения, 1973) [DVDRip, Не требуется] ...
  • Полонез Огинского (Лев Голуб, драма, военный, 1971) [DVDRip, Не требуется]
  • Афоня (Георгий Данелия, драма, мелодрама, комедия, 1975) [DVDRip, Не требуе ...
  • Ссора в Лукашах (Максим Руф, мюзикл, комедия, 1959) [DVDrip, Не требуется]
  • Осенний марафон (Георгий Данелия, драма, мелодрама, комедия, 1979) [DVDRip, ...
  • Ой, вы, гуси... (Лидия Боброва, Драма, 1991) [DVDRip, Не требуется]
  • Небесные ласточки (2 части из 2) (Леонид Квинихидзе, мюзикл, драма, комедия ...
  • Не горюй! (Георгий Данелия, драма, 1968) [DVDRip, Профессиональный (полное ...
  • Левша (Сергей Овчаров, драма, комедия, 1986) [DVDRip, Не требуется]
  • Комиссар (Александр Аскольдов, драма, военный, 1967) [DVDRip, Не требуется] ...
  • Паспорт (Георгий Данелия, комедия, 1990) [DVDRip, Не требуется]
  • Энергичные люди (2 части из 2) (Владимир Захаров, комедия, 1988) [DVDRip, Н ...
  • Майская ночь, или Утопленница (Александр Роу, фэнтези, комедия, 1952) [DVDR ...
  • Слезы капали (Георгий Данелия, драма, 1982) [DVDRip, Не требуется]
  • Тридцать три (Георгий Данелия, комедия, 1965) [DVDRip, Не требуется]
  • Путь к причалу (Георгий Данелия, драма, 1963) [DVDRip, Не требуется]
  • Орел и решка (Георгий Данелия, Комедия, 1995) [DVDRip, Оригинал]
  • Драгоценный подарок (Александр Роу, семейный, 1956) [DVDRip, Не требуется]
  • В добрый час! (Виктор Эйсымонт, драма, мелодрама, 1956) [DVDRip, Не требует ...
  • Информация
    Посетители, находящиеся в группе Гости, не могут оставлять комментарии к данной публикации.