вход на сайт

Имя пользователя :
Пароль :

Восстановление пароля Регистрация
Ход конем (Татьяна Лукашевич, комедия, 1962) [DVDRip, Не требуется]
Рейтинг:
(голосов: 1)



[img]{THEME}/images/logopost.png[/img]



Ход конем

Год выпуска: 1962
Страна: СССР
Производство: Мосфильм
Жанр: комедия

Режиссёр: Татьяна Лукашевич
В ролях: Борис Кузнецов, Савелий Крамаров, Афанасий Кочетков, Михаил Пуговкин, Анатолий Папанов, Татьяна Пельтцер, Виктор Хохряков, Юрий Белов, Станислав Чекан, Николай Бармин

Перевод: Не требуется
Субтитры: Отсутствуют

Описание:
Пятнадцатилетний Алешка Левшин, мечтающий стать таким же классным трактористом, как передовик Шугай, из-за возраста не допускается к работам в колхозе, где он намерен прожить всю жизнь. Но у него есть взрослый друг — прицепщик Колька Лопатин, который давно мечтает о беззаботной городской жизни.

Лешка идет на безобидную хитрость — и по документам друга поступает в училище механизаторов, а Колька едет в город к Лешкиному дяде…


Дополнительно:
MediaInfo ▼Text
Общее
Полное имя :L:Ход конемХод конем.avi
Формат :AVI
Размер :743 MiB
Продолжительность :01:17:51.360
Общий поток :1 333 Kbps
Программа кодирования :VirtualDubMod 1.5.10.2 (build 2540/release)
Библиотека кодирования :VirtualDubMod build 2540/release

Видео
Идентификатор :0
Формат :MPEG-4 Visual
Профиль формата :Advanced [email protected]
Параметр BVOP формата :2
Параметр Qpel формата :No
Параметр GMC формата :0
Параметр Matrix формата :Default (MPEG)
Идентификатор кодека :XVID
Продолжительность :1h 17mn 51s 360ms
Битрейт :1 196 Kbps
Ширина :640 pixels
Высота :464 pixels
Соотношение сторон :1.379
Частота кадров :25.000 fps
Глубина цвета :8 bits
Подвыборка цветности :4:2:0
Цветовое пространство :YUV
Тип развертки :Progressive
Бит/(Пиксели*Кадры) :0.161
Размер потока :666 MiB (90%)
Библиотека кодирования :XviD0050

Аудио #1
Идентификатор :1
Формат :MPEG Audio
Идентификатор кодека :55
Продолжительность :01:17:51.120
Вид битрейта :Constant
Битрейт :128 Kbps
Канал(ы) :2 channels
Частота :48.0 KHz
Метод сжатия :Lossy
Размер потока :71.3 MiB (10%)



Тех. данные:
Качество:DVDRip
Продолжитель
369dc0d5084b08fa768ac6be1d4e4404fdaed813Ход конем (Татьяна Лукашевич, комедия, 1962) [DVDRip, Не требуется] Ход конем (Татьяна Лукашевич, комедия, 1962) [DVDRip, Не требуется] " />

Аплоадер: Админ, дата: 1-04-2013, 21:15, торрент скачан: 359 раз

Понравилась раздача? Посмотрите эти:
  • Воздыхатель / Le soupirant (Пьер Этекс, комедия, 1962) [DVDRip, Профессиона ...
  • На подмостках сцены (Константин Юдин, драма, комедия, 1956) [DVDRip, Не тре ...
  • Аленка (Борис Барнет, комедия, 1961) [DVDRip, Не требуется]
  • Начало (Глеб Панфилов, мелодрама, комедия, 1970) [DVDRip, Не требуется]
  • Дневной поезд (Инесса Селезнева, драма, 1976) [DVDRip, Не требуется]
  • Девушка джигит (Павел Боголюбов, комедия, 1955) [DVDRip, Не требуется]
  • Гражданин Лёшка (Виктор Крючков, комедия, 1980) [DVDRip, Не требуется]
  • Человек идёт за солнцем (Михаил Калик, драма, 1961) [DVDRip, Не требуется]
  • Иван да Марья (Борис Рыцарев, фэнтези, мелодрама, комедия, семейный, музыка ...
  • Завтрак на траве (Николай Александрович, детский, комедия, 1979) [DVDRip, Н ...
  • Друг мой, Колька!.. (Александр Митта, Алексей Салтыков, драма, 1961) [DVDRi ...
  • Карнавал (2 части из 2) (Татьяна Лиознова, мюзикл, комедия, 1981) [DVDRip, ...
  • Печёнка (Арман Манарян, короткометражка, комедия, 1962) [DVDRip, Не требует ...
  • Черная чайка (Григорий Колтунов, приключения, 1962) [DVDRip, Не требуется]
  • Солёный пёс (Николай Кошелев, драма, комедия, 1973) [DVDRip, Не требуется]
  • Семь нянек (Ролан Быков, комедия, 1962) [DVDRip, Не требуется]
  • Шельменко-денщик (Андрей Тутышкин, мюзикл, комедия, 1971) [DVDRip, Не требу ...
  • Прощайте, фараоны! (Давид Черкасский, Вячеслав Винник, комедия, 1974) [DVDR ...
  • Старомодная комедия (Эра Савельева, Татьяна Березанцева, мелодрама, 1978) [ ...
  • Приключения желтого чемоданчика (Илья Фрэз, комедия, семейный, 1970) [DVDRi ...
  • Ход конем (Савелий Крамаров, комедия, 1962 ) [DVDRip, оригинал]
  • Чудак-человек (Владимир Кочетов, комедия, 1962) [DVDRip, Не требуется]
  • Добряки (Карен Шахназаров, комедия, 1979) [DVDRip, Не требуется]
  • Как рождаются тосты (Всеволод Массино, Оскар Герц, Андрей Тутышкин, коротко ...
  • Карьера Димы Горина (Фрунзе Довлатян, Лев Мирский, комедия, 1962) [DVDRip, ...
  • Информация
    Посетители, находящиеся в группе Гости, не могут оставлять комментарии к данной публикации.