вход на сайт

Имя пользователя :
Пароль :

Восстановление пароля Регистрация
Хозяин тайги (Владимир Назаров, криминал, 1968) [DVDRip, Не требуется]
Рейтинг:
(голосов: 1)



[img]{THEME}/images/logopost.png[/img]



Хозяин тайги

Год выпуска: 1968
Страна: СССР
Производство: Мосфильм
Жанр: криминал

Режиссёр: Владимир Назаров
В ролях: Валерий Золотухин, Владимир Высоцкий, Лионелла Пырьева, Михаил Кокшенов, Дмитрий Масанов, Леонид Кмит, Эдуард Бредун, Иван Косых, Павел Шпрингфельд, Владимир Липпарт

Перевод: Не требуется
Субтитры: Отсутствуют

Описание:
В таежном поселке, где каждый на виду, происходит почти невероятное — ограблен местный магазин. Во взломе признается один из сплавщиков леса. Но молодому участковому не дают покоя кое-какие «нестыковки». И в конце концов он выходит на след подлинных участников преступления…


Дополнительно:
MediaInfo ▼Text
Общее
Полное имя :L:Хозяин тайгиKhozyain taygi .avi
Формат :AVI
Размер :700 MiB
Продолжительность :01:18:18.600
Общий поток :1 250 Kbps
Программа кодирования :VirtualDubMod 1.5.4.1 (build 2178/release)
Библиотека кодирования :VirtualDubMod build 2178/release

Видео
Идентификатор :0
Формат :MPEG-4 Visual
Параметр BVOP формата :1
Параметр Qpel формата :No
Параметр GMC формата :0
Параметр Matrix формата :Default (H.263)
Идентификатор кодека :DX50
Продолжительность :1h 18mn 18s 600ms
Битрейт :1 115 Kbps
Ширина :640 pixels
Высота :288 pixels
Соотношение сторон :2.222
Частота кадров :25.000 fps
Глубина цвета :8 bits
Подвыборка цветности :4:2:0
Цветовое пространство :YUV
Тип развертки :Progressive
Бит/(Пиксели*Кадры) :0.242
Размер потока :625 MiB (89%)
Библиотека кодирования :DivX503b1338p

Аудио #1
Идентификатор :1
Формат :MPEG Audio
Идентификатор кодека :55
Продолжительность :01:18:18.600
Вид битрейта :Constant
Битрейт :128 Kbps
Канал(ы) :2 channels
Частота :48.0 KHz
Метод сжатия :Lossy
Размер потока :71.7 MiB (10%)



Тех. данные:
Качество:DVDRip
Продолжительность:01:18:10 час

Формат: AVI
Видео кодек: DivX
Аудио кодек: MPA1L3
Видео: 640 x 288 (2.222), 25.000 fps, 1 115 Kbps, 0.242 bit/pixel
Аудио : 48.0 KHz, , 2 channels (), 128 Kbps


1502d76de6a89bd9779357f61a494ab5892c7699Хозяин тайги (Владимир Назаров, криминал, 1968) [DVDRip, Не требуется] Хозяин тайги (Владимир Назаров, криминал, 1968) [DVDRip, Не требуется] " />

Аплоадер: Админ, дата: 1-04-2013, 21:12, торрент скачан: 359 раз

Понравилась раздача? Посмотрите эти:
  • Матрос Чижик (Владимир Браун, мелодрама, 1955) [DVDRip, Не требуется]
  • Ошибка резидента (2 части из 2) (Вениамин Дорман, детектив, 1968) [DVDRip, ...
  • По Руси (Фёдор Филиппов, биография, 1968) [DVDRip, Не требуется]
  • Нейтральные воды (Владимир Беренштейн, драма, 1968) [DVDRip, Не требуется]
  • Маэстро вор (Владимир Шамшурин, боевик, детектив, приключения, 1994) [DVDRi ...
  • Чиполлино (Тамара Лисициан, семейный, 1973) [DVDRip, Не требуется]
  • Рыжик (Илья Фрэз, приключения, семейный, 1960) [DVDRip, Не требуется]
  • Пакет (Владимир Назаров, комедия, приключения, семейный, 1965) [DVDRip, Не ...
  • Деревенский детектив (Иван Лукинский, комедия, криминал, 1968) [DVDRip, Не ...
  • Анискин и Фантомас (2 части из 2) (Михаил Жаров, Владимир Рапопорт, комедия ...
  • Неподсуден (Владимир Краснопольский, Валерий Усков, драма, 1969) [DVDRip, Н ...
  • Моя любовь (Владимир Корш-Саблин, мюзикл, мелодрама, комедия, 1940) [DVDRip ...
  • Князь Удача Андреевич (Геннадий Байсак, комедия, криминал, семейный, 1989) ...
  • Капитанская дочка (Владимир Каплуновский, драма, 1958) [DVDRip, Не требуетс ...
  • Хозяин тайги (Владимир Назаров, криминальная драма, детектив, 1968) [DVDRip ...
  • Трактир на Пятницкой (Александр Файнциммер, криминал, детектив, 1977) [DVDR ...
  • Сказы Уральских гор (Ольгерд Воронцов, документальный, биография, 1968) [DV ...
  • Карусель (Михаил Швейцер, комедия, 1970) [DVDRip, Не требуется]
  • Сотрудник ЧК (Борис Волчек, боевик, история, 1963) [DVDRip, Не требуется]
  • Спортлото-82 (Леонид Гайдай, комедия, приключения, 1982) [DVDRip, Не требуе ...
  • Хозяин и слуга (Дмитрий Кесаянц, короткометражка, комедия, 1963) [DVDRip, Н ...
  • Донская повесть (Владимир Фетин, драма, 1964) [DVDRip, Не требуется]
  • Максимка (Владимир Браун, приключения, 1953) [DVDRip, Не требуется]
  • Мексиканец (Владимир Каплуновский, драма, 1955) [DVDRip, Не требуется]
  • Комедия строгого режима (Михаил Григорьев, Владимир Студенников, Комедия, 1 ...
  • Информация
    Посетители, находящиеся в группе Гости, не могут оставлять комментарии к данной публикации.