вход на сайт

Имя пользователя :
Пароль :

Восстановление пароля Регистрация
Человек идёт за солнцем (Михаил Калик, драма, 1961) [DVDRip, Не требуется]
Рейтинг:
(голосов: 1)



[img]{THEME}/images/logopost.png[/img]



Человек идёт за солнцем

Год выпуска: 1961
Страна: СССР
Производство: Молдова Фильм
Жанр: драма

Режиссёр: Михаил Калик
В ролях: Ника Кримнус, Татьяна Бестаева, Николай Волков, Георгий Георгиу, Михаил Греку, Евгений Евстигнеев, Валентин Зубков, Лев Круглый, Валентина Телегина, Анатолий Папанов

Перевод: Не требуется
Субтитры: Отсутствуют

Описание:
Мальчик идет по любимому городу вслед за солнцем. На своем пути маленький наблюдатель встречает разных людей — добрых и злых, чутких и равнодушных…


Дополнительно:
MediaInfo ▼Text
Общее
Полное имя :J:Человек идет за СолнцемЧеловек идёт за солнцем.avi
Формат :AVI
Размер :895 MiB
Продолжительность :01:07:48.840
Общий поток :1 845 Kbps
Программа кодирования :VirtualDubMod 1.5.10.2 (build 2540/release)
Библиотека кодирования :VirtualDub build 32618/release

Видео
Идентификатор :0
Формат :MPEG-4 Visual
Профиль формата :Advanced [email protected]
Параметр BVOP формата :3
Параметр Qpel формата :No
Параметр GMC формата :0
Параметр Matrix формата :Default (H.263)
Идентификатор кодека :XVID
Продолжительность :1h 7mn 48s 840ms
Битрейт :1 779 Kbps
Ширина :720 pixels
Высота :552 pixels
Соотношение сторон :1.304
Частота кадров :25.000 fps
Глубина цвета :8 bits
Подвыборка цветности :4:2:0
Цветовое пространство :YUV
Тип развертки :Progressive
Бит/(Пиксели*Кадры) :0.179
Размер потока :863 MiB (96%)
Библиотека кодирования :XviD0050

Аудио #1
Идентификатор :1
Формат :MPEG Audio
Идентификатор кодека :55
Продолжительность :01:07:48.840
Вид битрейта :Constant
Битрейт :56.0 Kbps
Канал(ы) :1 channel
Частота :24.0 KHz
Метод сжатия :Lossy
Размер потока :27.2 MiB (3%)



Тех. данные:
Качество:DVDRip
Продолжительность:01:07:40 час

Формат: AVI
Видео кодек: XviD
Аудио кодек: MPA2L3
Видео: 720 x 552 (4:3), 25.000 fps, 1 779 Kbps, 0.179 bit/pixel
Аудио : 24.0 KHz, , 1 channel (), 56.0 Kbps



d51d9662582bd8b05c68c2ed23b38c6abb4a964eЧеловек идёт за солнцем (Михаил Калик, драма, 1961) [DVDRip, Не требуется] Человек идёт за солнцем (Михаил Калик, драма, 1961) [DVDRip, Не требуется] " />

Аплоадер: Админ, дата: 1-04-2013, 09:35, торрент скачан: 359 раз

Понравилась раздача? Посмотрите эти:
  • Бой под Соколом (Александр Разумный, военный, 1942) [DVDRip, Не требуется]
  • "Мерседес" уходит от погони (Юрий Ляшенко, военный, 1980) [DVDRip, Не требу ...
  • Аленка (Борис Барнет, комедия, 1961) [DVDRip, Не требуется]
  • Летят журавли (Михаил Калатозов, драма, мелодрама, военный, 1957) [DVDRip, ...
  • Евдокия (Полная реставрация) (Татьяна Лиознова, драма, 1961) [DVDRip, Не тр ...
  • Дневной поезд (Инесса Селезнева, драма, 1976) [DVDRip, Не требуется]
  • Вы чье, старичье? (Иосиф Хейфиц, драма, 1988) [DVDRip, Не требуется]
  • Ход конем (Татьяна Лукашевич, комедия, 1962) [DVDRip, Не требуется]
  • Убийство на улице Данте (Михаил Ромм, драма, 1956) [DVDRip, Не требуется]
  • Путевка в Жизнь (Николай Экк, драма, 1931) [DVDRip, Не требуется]
  • Попрыгунья (Самсон Самсонов, драма, 1955) [DVDRip, Не требуется]
  • Поезд идёт на восток (Цветной) (Юлий Райзман, мелодрама, комедия, 1947) [DV ...
  • Вся королевская рать (3 части из 3) (Наум Ардашников, Александр Гуткович, д ...
  • Далеко от Москвы (Александр Столпер, драма, 1950) [DVDRip, Не требуется]
  • Если есть паруса (Валентин Козачков, драма, 1969) [DVDRip, Не требуется]
  • Друг мой, Колька!.. (Александр Митта, Алексей Салтыков, драма, 1961) [DVDRi ...
  • Капитанская дочка (Владимир Каплуновский, драма, 1958) [DVDRip, Не требуетс ...
  • Дуэнья (Михаил Григорьев, комедия, история, 1978) [DVDRip, Не требуется]
  • Пиковая Дама (Роман Тихомиров, мюзикл, драма, 1961) [DVDRip, Не требуется]
  • Карусель (Михаил Швейцер, комедия, 1970) [DVDRip, Не требуется]
  • После дождичка, в четверг... (Михаил Юзовский, семейный, 1987) [DVDRip, Не ...
  • Любить(Михаил Калик, Инна Туманян, документальный, драма, мелодрама, 1968) ...
  • Дерсу Узала (Агаси Бабаян, приключения, 1961) [DVDRip, Не требуется]
  • Каин XVIII (Надежда Кошеверова, Михаил Шапиро, фэнтези, мелодрама, приключе ...
  • Суворов (Михаил Доллер, Всеволод Пудовкин, драма, военный, биография, истор ...
  • Информация
    Посетители, находящиеся в группе Гости, не могут оставлять комментарии к данной публикации.