вход на сайт

Имя пользователя :
Пароль :

Восстановление пароля Регистрация
Человек-невидимка (Александр Захаров, фантастика, драма, 1984) [DVDRip, Не требуется]
Рейтинг:
(голосов: 1)



[img]{THEME}/images/logopost.png[/img]



Человек-невидимка

Год выпуска: 1984
Страна: СССР
Производство: Мосфильм
Жанр: фантастика, драма

Режиссёр: Александр Захаров
В ролях: Андрей Харитонов, Ромуалдас Раманаускас, Леонид Куравлёв, Наталья Данилова, Олег Голубицкий, Нина Агапова, Виктор Сергачев, Юрий Катин-Ярцев, Александр Пятков, Олегар Федоро

Перевод: Не требуется
Субтитры: Отсутствуют

Описание:
Талантливый молодой исследователь находит способ делать физические тела невидимыми. Это кажется невероятным — однако в результате эксперимента ученый сам превращается в невидимку.

С этого момента жизнь его становится мучением: объявленный опасным преступником, он подвергается преследованию; его записи украдены — и он не в состоянии вернуть себе прежний облик; наконец, его открытие, попав в чужие руки, может стать орудием зла…


Дополнительно:
MediaInfo ▼Text
Общее
Полное имя :L:Человек-невидимкаЧеловек-невидимка.avi
Формат :AVI
Размер :744 MiB
Продолжительность :01:23:42.560
Общий поток :1 243 Kbps
Программа кодирования :VirtualDubMod 1.5.10.3 | www.virtualdub-fr.org || (build 2550/release)
Библиотека кодирования :VirtualDubMod build 2550/release

Видео
Идентификатор :0
Формат :MPEG-4 Visual
Профиль формата :Advanced [email protected]
Параметр BVOP формата :1
Параметр Qpel формата :No
Параметр GMC формата :0
Параметр Matrix формата :Custom
Идентификатор кодека :XVID
Продолжительность :1h 23mn 42s 560ms
Битрейт :1 106 Kbps
Ширина :640 pixels
Высота :480 pixels
Соотношение сторон :1.333
Частота кадров :25.000 fps
Глубина цвета :8 bits
Подвыборка цветности :4:2:0
Цветовое пространство :YUV
Тип развертки :Progressive
Бит/(Пиксели*Кадры) :0.144
Размер потока :662 MiB (89%)
Библиотека кодирования :XviD0064

Аудио #1
Идентификатор :1
Формат :MPEG Audio
Идентификатор кодека :55
Продолжительность :01:23:27.096
Вид битрейта :Constant
Битрейт :128 Kbps
Канал(ы) :2 channels
Частота :48.0 KHz
Метод сжатия :Lossy
Размер потока :76.4 MiB (10%)


&
2ac327a26200b8affbbba550979babe8ed1477c6Человек-невидимка (Александр Захаров, фантастика, драма, 1984) [DVDRip, Не требуется] Человек-невидимка (Александр Захаров, фантастика, драма, 1984) [DVDRip, Не требуется] " />

Аплоадер: Админ, дата: 1-04-2013, 09:32, торрент скачан: 359 раз

Понравилась раздача? Посмотрите эти:
  • Подранки (Николай Губенко, драма, 1976) [DVDRip, Не требуется]
  • Бой под Соколом (Александр Разумный, военный, 1942) [DVDRip, Не требуется]
  • Алые паруса (Александр Птушко, фэнтези, драма, мелодрама, 1961) [DVDRip, Не ...
  • Человек, которому везло (Константин Ершов, драма, 1978) [DVDRip, Не требует ...
  • Ко мне, Мухтар! (Семен Туманов, В. Тиунова, драма, 1964) [DVDRip, Не требуе ...
  • Два гусара (Вячеслав Криштофович, мелодрама, 1984) [DVDRip, Не требуется]
  • Шанс (Александр Майоров, фантастика, фэнтези, мелодрама, комедия, приключен ...
  • Чужая жена и муж под кроватью (Виталий Мельников, драма, 1984) [DVDRip, Не ...
  • Четвертый (Александр Столпер, драма, 1972) [DVDRip, Не требуется]
  • Человек идёт за солнцем (Михаил Калик, драма, 1961) [DVDRip, Не требуется]
  • Старшина (Николай Кошелев, драма, 1979) [DVDRip, Не требуется]
  • Сегодня увольнения не будет (Александр Гордон, Андрей Тарковский, короткоме ...
  • Гиперболоид инженера Гарина (Александр Гинцбург, фантастика, 1965) [DVDRip, ...
  • Далеко от Москвы (Александр Столпер, драма, 1950) [DVDRip, Не требуется]
  • И вот пришел Бумбо... (Надежда Кошеверова, В. Апананский, Н. Окунцова, семе ...
  • Друг мой, Колька!.. (Александр Митта, Алексей Салтыков, драма, 1961) [DVDRi ...
  • Дом, который построил Свифт (2 части из 2) (Марк Захаров, фэнтези, триллер, ...
  • Левша (Сергей Овчаров, драма, комедия, 1986) [DVDRip, Не требуется]
  • Комиссар (Александр Аскольдов, драма, военный, 1967) [DVDRip, Не требуется] ...
  • Печники (Виктор Храмов, драма, 1982) [DVDRip, Не требуется]
  • В лесах под Ковелем (3 части из 3) (Юрий Тупицкий, военный, история, 1984) ...
  • Человек-невидимка (Александр Захаров, фантастика, драма,1984) [DVDRip, не ...
  • Дом на дюнах (Дмитрий Салынский, приключения, 1984) [DVDRip, Не требуется]
  • Вера, надежда, любовь (Владимир Грамматиков, приключения, 1984) [DVDRip, Не ...
  • В добрый час! (Виктор Эйсымонт, драма, мелодрама, 1956) [DVDRip, Не требует ...
  • Информация
    Посетители, находящиеся в группе Гости, не могут оставлять комментарии к данной публикации.