вход на сайт

Имя пользователя :
Пароль :

Восстановление пароля Регистрация
Четвертый (Александр Столпер, драма, 1972) [DVDRip, Не требуется]
Рейтинг:
(голосов: 1)



[img]{THEME}/images/logopost.png[/img]



Четвертый

Год выпуска: 1972
Страна: СССР
Производство: Мосфильм
Жанр: драма

Режиссёр: Александр Столпер
В ролях: Владимир Высоцкий, Маргарита Терехова, Сергей Шакуров, Александр Кайдановский, Сергей Сазонтьев, Юрий Соломин, Татьяна Васильева, Марис Лиепа, Армен Джигарханян, Юозас Будрайтис

Перевод: Не требуется
Субтитры: Отсутствуют

Описание:
Американский журналист волею обстоятельств поставлен перед выбором: предать огласке преступные планы сторонников войны и при этом лишиться всех жизненных благ или отступить…


Дополнительно:
MediaInfo ▼Text
Общее
Полное имя :L:ЧетвертыйChetvertiy_DVDRip.avi
Формат :AVI
Размер :1.09 GiB
Продолжительность :01:07:16.600
Общий поток :2 326 Kbps
Программа кодирования :VirtualDubModRus 1.5.10.2 (build 2542/release)
Библиотека кодирования :VirtualDubMod build 2542/release

Видео
Идентификатор :0
Формат :MPEG-4 Visual
Параметр BVOP формата :Yes
Параметр Qpel формата :No
Параметр GMC формата :0
Параметр Matrix формата :Default (H.263)
Идентификатор кодека :DX50
Продолжительность :1h 7mn 16s 600ms
Битрейт :1 933 Kbps
Ширина :720 pixels
Высота :304 pixels
Соотношение сторон :2.368
Частота кадров :25.000 fps
Глубина цвета :8 bits
Подвыборка цветности :4:2:0
Цветовое пространство :YUV
Тип развертки :Progressive
Бит/(Пиксели*Кадры) :0.353
Размер потока :930 MiB (83%)
Библиотека кодирования :DivX503b2676p

Аудио #1
Идентификатор :1
Формат :AC-3
Формат/Информация :Audio Coding 3
Идентификатор кодека :2000
Продолжительность :01:07:16.384
Вид битрейта :Constant
Битрейт :384 Kbps
Канал(ы) :2 channels
Расположение каналов :Front: L R
Частота :48.0 KHz
Битовая глубина :16 bits
Метод сжатия :Lossy
Размер потока :185 MiB (17%)



Тех. данные:
Качество:DVDRip
Продолжительность:01:07:10 час

Формат: AVI
Видео кодек: DivX
Аудио кодек: AC3
Видео:
991f97a9e414901939e6ea581c59cbc272f9fab1Четвертый (Александр Столпер, драма, 1972) [DVDRip, Не требуется] Четвертый (Александр Столпер, драма, 1972) [DVDRip, Не требуется] " />

Аплоадер: Админ, дата: 1-04-2013, 09:26, торрент скачан: 359 раз

Понравилась раздача? Посмотрите эти:
  • Наследница по прямой (Сергей Соловьев, мелодрама, 1982) [DVDRip, Не требует ...
  • На подмостках сцены (Константин Юдин, драма, комедия, 1956) [DVDRip, Не тре ...
  • Айрик (Генрих Малян, драма, семейный, 1972) [DVDRip, Профессиональный (пол ...
  • Зимородок (Вячеслав Никифоров, военный, 1972) [DVDRip, Не требуется]
  • Жди меня (Борис Иванов, Александр Столпер, драма, военный, 1972) [DVDRip, Н ...
  • Дорога (Александр Столпер, боевик, 1955) [DVDRip, Не требуется]
  • Шел четвертый год войны... (Георгий Николаенко, военный, 1983) [DVDRip, Не ...
  • Ох, уж эта Настя! (Юрий Победоносцев, семейный, 1972) [DVDRip, Не требуется ...
  • Парень из нашего города (Александр Столпер, Борис Иванов, драма, военный, 1 ...
  • Двенадцать месяцев (2 части из 2) (Анатолий Граник, фэнтези, семейный, 1972 ...
  • Далеко от Москвы (Александр Столпер, драма, 1950) [DVDRip, Не требуется]
  • Живые и мертвые (2 части из 2) (Александр Столпер, драма, военный, 1963) [D ...
  • Комиссар (Александр Аскольдов, драма, военный, 1967) [DVDRip, Не требуется] ...
  • Тропой бескорыстной любви (Агаси Бабаян, драма, 1972) [DVDRip, Не требуется ...
  • Повесть о настоящем человеке (Александр Столпер, драма, военный, 1948) [DVD ...
  • Чайка (Юлий Карасик, драма, 1972) [DVDRip, Не требуется]
  • Табачный капитан (Игорь Усов, мюзикл, комедия, история, 1972) [DVDRip, Не т ...
  • Холодное лето пятьдесят третьего (Александр Прошкин, боевик, драма, кримина ...
  • Майская ночь, или Утопленница (Александр Роу, фэнтези, комедия, 1952) [DVDR ...
  • Руслан и Людмила (2 части из 2) (Александр Птушко, фэнтези, детектив, 1972) ...
  • Садко (Александр Птушко, фэнтези, приключения, 1952) [DVDRip, Не требуется] ...
  • Болотные солдаты (Александр Мачерет, драма, военный, 1938) [DVDRip, Не треб ...
  • Донская повесть (Владимир Фетин, драма, 1964) [DVDRip, Не требуется]
  • Драгоценный подарок (Александр Роу, семейный, 1956) [DVDRip, Не требуется]
  • Вера, надежда, любовь (Владимир Грамматиков, приключения, 1984) [DVDRip, Не ...
  • Информация
    Посетители, находящиеся в группе Гости, не могут оставлять комментарии к данной публикации.