вход на сайт

Имя пользователя :
Пароль :

Восстановление пароля Регистрация
Чиполлино (Тамара Лисициан, семейный, 1973) [DVDRip, Не требуется]
Рейтинг:
(голосов: 1)



[img]{THEME}/images/logopost.png[/img]



Чиполлино

Год выпуска: 1973
Страна: СССР
Производство: Мосфильм
Жанр: семейный

Режиссёр: Тамара Лисициан
В ролях: Джанни Родари, Александр Елистратов, Владимир Басов, Рина Зеленая, Александра Панова, Виталик Кердимун, Надир Малишевский, Владимир Белокуров, Георгий Вицин, Роман Ткачук

Перевод: Не требуется
Субтитры: Отсутствуют

Описание:
Эксцентрическая музыкальная киносказка об удивительной стране, где живут овощи и фрукты, и о приключениях отважного веселого и озорного мальчишки Чиполлино из лукового семейства…


Дополнительно:
MediaInfo ▼Text
Общее
Полное имя :L:ЧиполлиноChipollino.avi
Формат :AVI
Размер :700 MiB
Продолжительность :01:20:47.208
Общий поток :1 212 Kbps
Программа кодирования :VirtualDubMod 1.5.4.1 (build 2178/release)
Библиотека кодирования :VirtualDubMod build 2178/release

Видео
Идентификатор :0
Формат :MPEG-4 Visual
Профиль формата :[email protected]
Параметр BVOP формата :1
Параметр Qpel формата :No
Параметр GMC формата :0
Параметр Matrix формата :Custom
Идентификатор кодека :XVID
Продолжительность :1h 20mn 47s 200ms
Битрейт :1 083 Kbps
Ширина :640 pixels
Высота :320 pixels
Соотношение сторон :2.000
Частота кадров :25.000 fps
Глубина цвета :8 bits
Подвыборка цветности :4:2:0
Цветовое пространство :YUV
Тип развертки :Progressive
Бит/(Пиксели*Кадры) :0.211
Размер потока :626 MiB (89%)
Библиотека кодирования :XviD0009

Аудио #1
Идентификатор :1
Формат :MPEG Audio
Идентификатор кодека :55
Продолжительность :01:20:47.208
Вид битрейта :Variable
Битрейт :116 Kbps
Канал(ы) :2 channels
Частота :48.0 KHz
Метод сжатия :Lossy
Размер потока :66.9 MiB (10%)



Тех. данные:
Качество:DVDRip
Продолжительность:01:20:48 час

Формат: AVI
Видео кодек: XviD
Аудио кодек: MPA1L3
Видео: 640 x 320 (2.000), 25.000 fps, 1 083 Kbps, 0.211 bit/pixel
Аудио : 48.0 KHz, , 2 channels (), 116 Kbps



57defa740f4b4a818d96eaca192c077f9c5c4e6aЧиполлино (Тамара Лисициан, семейный, 1973) [DVDRip, Не требуется] Чиполлино (Тамара Лисициан, семейный, 1973) [DVDRip, Не требуется] " />

Аплоадер: Админ, дата: 1-04-2013, 09:23, торрент скачан: 359 раз

Понравилась раздача? Посмотрите эти:
  • Дружок (Виктор Эйсымонт, семейный, 1958) [DVDRip, Не требуется]
  • Акваланги на дне (Евгений Шерстобитов, боевик, приключения, семейный, 1965) ...
  • Открытая книга (Владимир Фетин, драма, биография, 1973) [DVDRip, Не требуе ...
  • Каштанка (Роман Балаян, приключения, 1975) [DVDRip, Не требуется]
  • Где это видано, где это слыхано (Валентин Горлов, короткометражка, комедия, ...
  • Совсем пропащий (Георгий Данелия, приключения, 1973) [DVDRip, Не требуется] ...
  • Рыжик (Илья Фрэз, приключения, семейный, 1960) [DVDRip, Не требуется]
  • Воскресный папа (Наум Бирман, драма, семейный, 1985) [DVDRip, Не требуется] ...
  • Анискин и Фантомас (2 части из 2) (Михаил Жаров, Владимир Рапопорт, комедия ...
  • Неисправимый лгун (Виллен Азаров, комедия, 1973) [DVDRip, Не требуется]
  • Левша (Сергей Овчаров, драма, комедия, 1986) [DVDRip, Не требуется]
  • Мульт-Салют. 7 ч. из 30: Приключения Буратино/Чиполлино (Иван Иванов-Вано, ...
  • Мы с Вулканом (Валентин Перов, детский, семейный, 1973) [TVRip, Не требуетс ...
  • Дача (Константин Воинов, комедия, 1974) [DVDRip, Не требуется]
  • Чудак из пятого «Б» (Илья Фрэз, комедия, семейный, 1972) [DVDRip, Не требуе ...
  • Соловей (Надежда Кошеверова, мюзикл, семейный, 1979) [DVDRip, Не требуется] ...
  • Умные вещи (2 части из 2) (Анатолий Граник, детский, семейный, 1973) [DVDRi ...
  • Чиполлино(Тамара Лисициан,семейный, детский, сказка, 1972) [DVDRip, не треб ...
  • Драгоценный подарок (Александр Роу, семейный, 1956) [DVDRip, Не требуется]
  • Каникулы Петрова и Васечкина, обыкновенные и невероятные (2 части из 2) (Вл ...
  • Информация
    Посетители, находящиеся в группе Гости, не могут оставлять комментарии к данной публикации.