вход на сайт

Имя пользователя :
Пароль :

Восстановление пароля Регистрация
Чужая жена и муж под кроватью (Виталий Мельников, драма, 1984) [DVDRip, Не требуется]
Рейтинг:
(голосов: 1)



[img]{THEME}/images/logopost.png[/img]



Чужая жена и муж под кроватью

Год выпуска: 1984
Страна: СССР
Производство: Гостелерадио, Ленфильм
Жанр: драма

Режиссёр: Виталий Мельников
В ролях: Олег Табаков, Олег Ефремов, Марина Неёлова, Николай Бурляев, Станислав Садальский, Марина Шиманская, Юрий Богатырев, Гали Абайдулов, Тамара Алешина

Перевод: Не требуется
Субтитры: Отсутствуют

Описание:
Ревнивый муж пытается выследить свою жену, которую он подозревает в измене. Он упорен и целеустремлен — кажется, еще немного, и плутовка будет выведена на чистую воду! Но мужчинам никогда не превзойти женской хитрости и изворотливости.


Дополнительно:
MediaInfo ▼Text
Общее
Полное имя :K:Чужая жена и муж под кроватьюChuzhaja zhena i muzh pod krovatyu.DVDRip.avi
Формат :AVI
Размер :744 MiB
Продолжительность :01:03:26.760
Общий поток :1 639 Kbps
Программа кодирования :VirtualDubMod 1.5.10.2 (build 2540/release)
Библиотека кодирования :VirtualDubMod build 2540/release

Видео
Идентификатор :0
Формат :MPEG-4 Visual
Параметр BVOP формата :1
Параметр Qpel формата :No
Параметр GMC формата :0
Параметр Matrix формата :Default (MPEG)
Идентификатор кодека :DX50
Продолжительность :1h 3mn 26s 760ms
Битрейт :1 469 Kbps
Ширина :640 pixels
Высота :464 pixels
Соотношение сторон :1.379
Частота кадров :25.000 fps
Глубина цвета :8 bits
Подвыборка цветности :4:2:0
Цветовое пространство :YUV
Тип развертки :Progressive
Бит/(Пиксели*Кадры) :0.198
Размер потока :667 MiB (90%)
Библиотека кодирования :DivX503b2676p

Аудио #1
Идентификатор :1
Формат :MPEG Audio
Идентификатор кодека :55
Продолжительность :01:03:26.688
Вид битрейта :Constant
Битрейт :160 Kbps
Канал(ы) :2 channels
Частота :48.0 KHz
Метод сжатия :Lossy
Размер потока :72.6 MiB (10%)



Тех. данные:
Качество:DVDRip
Продолжительность:01:03:20 час

Формат: AVI
Видео кодек: DivX
Аудио кодек: MPA1L3
Видео: 640 x 464 (1.379), 25.000 fps, 1 469 Kbps, 0.198 bit/pixel
Аудио : 48.0 KHz, , 2 channels (), 160 Kbp
c0ab9fb5a645c6ad1af14d9afa037f031a790d72Чужая жена и муж под кроватью (Виталий Мельников, драма, 1984) [DVDRip, Не требуется] Чужая жена и муж под кроватью (Виталий Мельников, драма, 1984) [DVDRip, Не требуется] " />

Аплоадер: Админ, дата: 1-04-2013, 09:20, торрент скачан: 359 раз

Понравилась раздача? Посмотрите эти:
  • "Мерседес" уходит от погони (Юрий Ляшенко, военный, 1980) [DVDRip, Не требу ...
  • Молодая жена (Леонид Менакер, драма, мелодрама, 1978) [DVDRip, Не требуется ...
  • Зимородок (Вячеслав Никифоров, военный, 1972) [DVDRip, Не требуется]
  • Выйти замуж за капитана (Виталий Мельников, мелодрама, комедия, 1985) [DVDR ...
  • Эзоп (Олег Рябоконь, драма, история, 1981) [DVDRip, Не требуется]
  • Человек-невидимка (Александр Захаров, фантастика, драма, 1984) [DVDRip, Не ...
  • Старший сын (2 части из 2) (Виталий Мельников, драма, 1975) [DVDRip, Не тре ...
  • Покаяние (Тенгиз Абуладзе, драма, комедия, 1984) [DVDRip, Профессиональный ...
  • Бабье царство (Алексей Салтыков, драма, 1967) [DVDRip, Не требуется]
  • Всё наоборот (Виталий Фетисов, Владимир Грамматиков, мелодрама, комедия, 19 ...
  • И вот пришел Бумбо... (Надежда Кошеверова, В. Апананский, Н. Окунцова, семе ...
  • Начальник Чукотки (Виталий Мельников, драма, комедия, приключения, история, ...
  • Капитанская дочка (Владимир Каплуновский, драма, 1958) [DVDRip, Не требуетс ...
  • Пиковая Дама (Роман Тихомиров, мюзикл, драма, 1961) [DVDRip, Не требуется]
  • Пиковая дама (Игорь Масленников, драма, 1982) [DVDRip, Не требуется]
  • Печники (Виктор Храмов, драма, 1982) [DVDRip, Не требуется]
  • Царская охота (2 части из 2) (Виталий Мельников, драма, история, 1990) [DVD ...
  • Путь корабля (Юрий Тарич, драма, приключения, 1935) [DVDRip, Не требуется]
  • ... и ещё одна ночь Шахерезады / Новые сказки Шахерезады / Последняя ночь Ш ...
  • После дождичка, в четверг... (Михаил Юзовский, семейный, 1987) [DVDRip, Не ...
  • В лесах под Ковелем (3 части из 3) (Юрий Тупицкий, военный, история, 1984) ...
  • Чужая жена и муж под кроватью (Виталий Мельников/Драма, комедия/1984г)[DVDR ...
  • Дом на дюнах (Дмитрий Салынский, приключения, 1984) [DVDRip, Не требуется]
  • Вера, надежда, любовь (Владимир Грамматиков, приключения, 1984) [DVDRip, Не ...
  • Неизвестный солдат (3 части из 3) (Григорий Аронов, Вадим Зобин, драма, 198 ...
  • Информация
    Посетители, находящиеся в группе Гости, не могут оставлять комментарии к данной публикации.