вход на сайт

Имя пользователя :
Пароль :

Восстановление пароля Регистрация
Старая крепость (7 частей из 7) (Михаил Беликов, Александр Муратов, приключения, 1973) [DVDRip, Не требуется]
Рейтинг:
(голосов: 1)



[img]{THEME}/images/logopost.png[/img]



Старая крепость (7 частей из 7)

Год выпуска: 1973
Страна: СССР
Производство: Студия Довженко
Жанр: приключения

Режиссёр: Михаил Беликов, Александр Муратов
В ролях: Леонид Неведомский, Андрей Федоров, Владимир Лелетко, Андрей Сорокин, Володя Никишаев, Саша Чагаров, Коля Симарев, Юля Якуб, Коля Кошмяк, Алекс Менглет

Перевод: Не требуется
Субтитры: Отсутствуют

Описание:
Фильм рассказывают о ребятах из украинского пограничного города Каменец-Подольского, которые становятся свидетелями и участниками революционных боев за Советскую власть.

Действие фильма охватывает период с предреволюционных лет до 30-х годов. Подпольщик-большевик Сергушин помогает детям рабочих Василию Манджуре, Юзеку Стародомскому, Петро Маремухе понять сущность классов.


Дополнительно:
MediaInfo ▼Text
"1 часть" ▼Общее
Полное имя :L:Старая крепостьСтарая крепостьСтарая крепость.01ч.avi
Формат :AVI
Размер :641 MiB
Продолжительность :01:03:29.160
Общий поток :1 411 Kbps

Видео
Идентификатор :0
Формат :MPEG-4 Visual
Профиль формата :Advanced [email protected]
Параметр BVOP формата :1
Параметр Qpel формата :No
Параметр GMC формата :0
Параметр Matrix формата :Default (MPEG)
Идентификатор кодека :XVID
Продолжительность :1h 3mn 29s 160ms
Битрейт :1 273 Kbps
Ширина :640 pixels
Высота :480 pixels
Соотношение сторон :1.333
Частота кадров :25.000 fps
Глубина цвета :8 bits
Подвыборка цветности :4:2:0
Цветовое пространство :YUV
Тип развертки :Progressive
Бит/(Пиксели*Кадры) :0.166
Размер потока :578 MiB (90%)
Библиотека кодирования :XviD0050

Аудио #1
Идентификатор :1
Формат :MPEG Audio
Идентификатор кодека :55
Продолжительность :01:03:29.160
Вид битрейта :Constant
Битрейт :128 Kbps
Канал(ы) :2 channels
Частота :48.0 KHz
Метод сжатия :Lossy
Размер потока :58.1 MiB (9%)
Язык : c


"2 часть" ▼Общее
Полное имя :L:Старая к
c708d30ee2d83ea8fcbc74a5c735ba5447b8c94fСтарая крепость (7 частей из 7) (Михаил Беликов, Александр Муратов, приключения, 1973) [DVDRip, Не требуется] Старая крепость (7 частей из 7) (Михаил Беликов, Александр Муратов, приключения, 1973) [DVDRip, Не требуется] " />

Аплоадер: Админ, дата: 1-04-2013, 01:34, торрент скачан: 359 раз

Понравилась раздача? Посмотрите эти:
  • Судьба резидента (2 части из 2) (Вениамин Дорман, детектив, приключения, 19 ...
  • Конец операции «Резидент» (2 части из 2) (Вениамин Дорман, боевик, приключе ...
  • Открытая книга (Владимир Фетин, драма, биография, 1973) [DVDRip, Не требуе ...
  • Макар-следопыт (3 части из 3) (Николай Ковальский, семейный, 1984) [DVDRip, ...
  • Дон Сезар де Базан (2 части из 2) (Ян Фрид, мюзикл, комедия, 1989) [DVDRip, ...
  • Сапоги (Владимир Немоляев, короткометражка, драма, комедия, 1957) [DVDRip, ...
  • Поднятая целина (3 части из 3) (Александр Иванов, драма, 1959) [DVDRip, Не ...
  • Вся королевская рать (3 части из 3) (Наум Ардашников, Александр Гуткович, д ...
  • Анискин и Фантомас (2 части из 2) (Михаил Жаров, Владимир Рапопорт, комедия ...
  • Противостояние (6 частей из 6) (Семен Аранович, драма, криминал, детектив, ...
  • Челюскинцы (2 части из 2) (Михаил Ершов, приключения, 1984) [TVRip, Не треб ...
  • Адъютант его превосходительства (5 частей из 5) (Евгений Ташков, мелодрама, ...
  • Степь (2 части из 2) (Сергей Бондарчук, драма, история, 1977) [DVDRip, Не т ...
  • Трест, который лопнул (3 части из 3) (Александр Павловский, мюзикл, комедия ...
  • У меня есть лев (2 части из 2) (Константин Бромберг, драма, комедия, приклю ...
  • Приморский бульвар (2 части из 2) (Александр Полынников, мюзикл, комедия, 1 ...
  • Старая крепость (7 серий из 7) (Александр Муратов, Михаил Беликов, Приключе ...
  • Дядюшкин сон (2 части из2) (Александр Орлов, драма, комедия, 1981) [DVDRip, ...
  • Моонзунд (2 части из 2) (Александр Муратов, драма, мелодрама, военный, исто ...
  • Легенда о Тиле. Фильм первый – Пепел Клааса // Легенда о Тиле. Фильм второй ...
  • Информация
    Посетители, находящиеся в группе Гости, не могут оставлять комментарии к данной публикации.