вход на сайт

Имя пользователя :
Пароль :

Восстановление пароля Регистрация
Шанс (Александр Майоров, фантастика, фэнтези, мелодрама, комедия, приключения, 1984) [DVDRip, Не требуется]
Рейтинг:
(голосов: 1)



[img]{THEME}/images/logopost.png[/img]



Шанс

Год выпуска: 1984
Страна: СССР
Производство: Мосфильм
Жанр: фантастика, фэнтези, мелодрама, комедия, приключения

Режиссёр: Александр Майоров
В ролях: Сергей Плотников, Игорь Шкурин, Мария Капнист, Дилором Камбарова, Раиса Куркина, Вероника Изотова, Виктор Павлов, Александр Евтеев, Людмила Иванова, Майя Менглет

Перевод: Не требуется
Субтитры: Отсутствуют

Описание:
В городе Великий Гусляр случилось чудо: благодаря полученному от инопланетян эликсиру несколько солидных граждан снова стали молодыми. Для одних эта перемена ознаменовала начало новой жизни, а другим доставила много неприятностей…


Дополнительно:
MediaInfo ▼Text
Общее
Полное имя :L:ШансShans.avi
Формат :AVI
Размер :701 MiB
Продолжительность :01:20:03.000
Общий поток :1 224 Kbps
Программа кодирования :VirtualDubMod 1.5.10.2 (build 2542/release)
Библиотека кодирования :VirtualDubMod build 2542/release

Видео
Идентификатор :0
Формат :MPEG-4 Visual
Параметр BVOP формата :1
Параметр Qpel формата :No
Параметр GMC формата :0
Параметр Matrix формата :Default (H.263)
Идентификатор кодека :DX50
Продолжительность :1h 20mn 3s 0ms
Битрейт :1 119 Kbps
Ширина :576 pixels
Высота :280 pixels
Соотношение сторон :2.057
Частота кадров :25.000 fps
Глубина цвета :8 bits
Подвыборка цветности :4:2:0
Цветовое пространство :YUV
Тип развертки :Progressive
Бит/(Пиксели*Кадры) :0.277
Размер потока :641 MiB (91%)
Библиотека кодирования :DivX503b740p

Аудио #1
Идентификатор :1
Формат :MPEG Audio
Идентификатор кодека :55
Продолжительность :01:20:02.541
Вид битрейта :Constant
Битрейт :96.0 Kbps
Канал(ы) :1 channel
Частота :44.1 KHz
Метод сжатия :Lossy
Размер потока :55.0 MiB (8%)



Тех. данные:
Качество:DVDRip
Продолжительность:01:20:00 час

Формат: AVI
Видео кодек: DivX
Аудио кодек: MPA1L3
Видео: 576 x 280 (2.057), 25.000 fps, 1 119 Kbps, 0.277 bit/pixel
Аудио : 44.1 KHz, , 1 channel (), 96.0 Kbps



eed0e17af83e42d4bcb51be7099360e7bfddf6c8Шанс (Александр Майоров, фантастика, фэнтези, мелодрама, комедия, приключения, 1984) [DVDRip, Не требуется] Шанс (Александр Майоров, фантастика, фэнтези, мелодрама, комедия, приключения, 1984) [DVDRip, Не требуется] " />

Аплоадер: Админ, дата: 1-04-2013, 01:28, торрент скачан: 359 раз

Понравилась раздача? Посмотрите эти:
  • Наследница по прямой (Сергей Соловьев, мелодрама, 1982) [DVDRip, Не требует ...
  • Медовый месяц (Надежда Кошеверова, мелодрама, комедия, 1956) [DVDRip, Не тр ...
  • Два гусара (Вячеслав Криштофович, мелодрама, 1984) [DVDRip, Не требуется]
  • Гражданин Лёшка (Виктор Крючков, комедия, 1980) [DVDRip, Не требуется]
  • Человек-невидимка (Александр Захаров, фантастика, драма, 1984) [DVDRip, Не ...
  • Гиперболоид инженера Гарина (Александр Гинцбург, фантастика, 1965) [DVDRip, ...
  • Иван да Марья (Борис Рыцарев, фэнтези, мелодрама, комедия, семейный, музыка ...
  • Ослиная шкура (Надежда Кошеверова, фэнтези, мелодрама, комедия, семейный, 1 ...
  • Сватовство гусара (Светлана Дружинина, мюзикл, мелодрама, комедия, 1979) [D ...
  • Пропавшая грамота (Борис Ивченко, фэнтези, комедия, 1972) [DVDRip, Професси ...
  • Майская ночь, или Утопленница (Александр Роу, фэнтези, комедия, 1952) [DVDR ...
  • Самый красивый конь (Степан Пучинян, мелодрама, 1976) [DVDRip, Не требуется ...
  • Руслан и Людмила (2 части из 2) (Александр Птушко, фэнтези, детектив, 1972) ...
  • Старомодная комедия (Эра Савельева, Татьяна Березанцева, мелодрама, 1978) [ ...
  • Садко (Александр Птушко, фэнтези, приключения, 1952) [DVDRip, Не требуется] ...
  • Шанс (Александр Майоров, фантастика,комедия, 1984) [DVDRip, оригинал]
  • Дядюшкин сон (2 части из2) (Александр Орлов, драма, комедия, 1981) [DVDRip, ...
  • Вера, надежда, любовь (Владимир Грамматиков, приключения, 1984) [DVDRip, Не ...
  • Каин XVIII (Надежда Кошеверова, Михаил Шапиро, фэнтези, мелодрама, приключе ...
  • Варвара-краса, длинная коса (Александр Роу, фэнтези, драма, мелодрама, коме ...
  • Информация
    Посетители, находящиеся в группе Гости, не могут оставлять комментарии к данной публикации.