вход на сайт

Имя пользователя :
Пароль :

Восстановление пароля Регистрация
Шел четвертый год войны... (Георгий Николаенко, военный, 1983) [DVDRip, Не требуется]
Рейтинг:
(голосов: 1)



[img]{THEME}/images/logopost.png[/img]



Шел четвертый год войны...

Год выпуска: 1983
Страна: СССР
Производство: Студия Горького
Жанр: военный,

Режиссёр: Георгий Николаенко
В ролях: Людмила Савельева, Николай Олялин, Александр Збруев, Николай Ерёменко , л.
, Александр Денисов, Тимофей Спивак, Вячеслав Баранов, Лев Дуров, Владимир Смирнов, Александр Лебедев

Перевод: Не требуется
Субтитры: Отсутствуют

Описание:
1944 год. На одном из участков фронта советское командование готовит крупное наступление. Войска должны пройти через лесной массив, охраняемый фашистами. Для выяснений целей вражеских формирований в этот район направляется группа советских разведчиков, которую возглавляет капитан Надежда Мороз…


Дополнительно:
MediaInfo ▼Text
Общее
Полное имя :J:Шёл четвертый год войныShel chetvertyy god vojny.avi
Формат :AVI
Размер :1.37 GiB
Продолжительность :01:21:40.800
Общий поток :2 396 Kbps
Программа кодирования :VirtualDubMod 1.5.10.2 (build 2540/release)
Библиотека кодирования :VirtualDubMod build 2540/release

Видео
Идентификатор :0
Формат :MPEG-4 Visual
Параметр BVOP формата :1
Параметр Qpel формата :No
Параметр GMC формата :0
Параметр Matrix формата :Default (H.263)
Идентификатор кодека :DX50
Продолжительность :1h 21mn 40s 800ms
Битрейт :2 131 Kbps
Ширина :672 pixels
Высота :384 pixels
Соотношение сторон :1.750
Частота кадров :25.000 fps
Глубина цвета :8 bits
Подвыборка цветности :4:2:0
Цветовое пространство :YUV
Тип развертки :Progressive
Бит/(Пиксели*Кадры) :0.330
Размер потока :1.22 GiB (89%)
Библиотека кодирования :DivX503b2816p

Аудио #1
Идентификатор :1
Формат :AC-3
Формат/Информация :Audio Coding 3
Идентификатор кодека :2000
Продолжительность :01:21:40.638
Вид битрейта :Constant
Битрейт :256 Kbps
Канал(ы) :2 channels
Расположение каналов :Front: L R
Частота :48.0 KHz
Битовая глубина :16 bits
Метод сжатия :Lossy
Размер потока :150 MiB (11%)



&
824882209a15a8323fae1ba92f2437cc024b750fШел четвертый год войны... (Георгий Николаенко, военный, 1983) [DVDRip, Не требуется] Шел четвертый год войны... (Георгий Николаенко, военный, 1983) [DVDRip, Не требуется] " />

Аплоадер: Админ, дата: 1-04-2013, 01:26, торрент скачан: 359 раз

Понравилась раздача? Посмотрите эти:
  • Бой под Соколом (Александр Разумный, военный, 1942) [DVDRip, Не требуется]
  • "Мерседес" уходит от погони (Юрий Ляшенко, военный, 1980) [DVDRip, Не требу ...
  • Зимородок (Вячеслав Никифоров, военный, 1972) [DVDRip, Не требуется]
  • Четвертый (Александр Столпер, драма, 1972) [DVDRip, Не требуется]
  • Путь в "Сатурн" (Виллен Азаров, военный, 1967) [DVDRip, Не требуется]
  • Бой после победы (2 части из 2) (Виллен Азаров, триллер, военный, 1972) [DV ...
  • Комиссар (Александр Аскольдов, драма, военный, 1967) [DVDRip, Не требуется] ...
  • Родина зовет (Александр Мачерет, военный, 1936) [DVDRip, Не требуется]
  • Повесть о настоящем человеке (Александр Столпер, драма, военный, 1948) [DVD ...
  • Небывальщина (Сергей Овчаров, комедия, 1983) [DVDRip, Не требуется]
  • Четвертый перископ (Виктор Эйсымонт, приключения, 1942) [DVDRip, Не требует ...
  • Славный малый (Борис Барнет, военный, 1943) [DVDRip, Не требуется]
  • Смелые люди (Константин Юдин, боевик, драма, военный, 1950) [DVDRip, Не тре ...
  • Разведчики (Игорь Самборский, Алексей Швачко, приключения, военный, 1968) [ ...
  • Шел четвертый год войны... (Георгий Николаенко, драма, военный, 1985) [DVDR ...
  • Р.В.С. (Алексей Мороз, военный, 1977) [DVDRip, (2х)Оригинал (русский)]
  • Адмирал Нахимов (Всеволод Пудовкин, драма, военный, биография, история, 194 ...
  • Суворов (Михаил Доллер, Всеволод Пудовкин, драма, военный, биография, истор ...
  • Котовский (Александр Файнциммер, военный, биография, история, 1942) [DVDRip ...
  • Комбаты (2 части из 2) (Вячеслав Колегаев, военный, 1983) [DVDRip, Не требу ...
  • Информация
    Посетители, находящиеся в группе Гости, не могут оставлять комментарии к данной публикации.